找回密码

蓝光电影网

查看: 611|回复: 0

[剧情] 孩子们都很好/非单亲关系 The.Kids.Are.All.Right.2010.1080p.Bluray.x264-CBGB 7.94GB

[复制链接]
蓝光币
733
发表于 2018-9-12 10:46:10 | 显示全部楼层 |阅读模式

孩子们都很好/非单亲关系 The.Kids.Are.All.Right.2010.1080p.Bluray.x264-CBGB 7.94GB-1.jpg
◎译  名 孩子们都很好/非单亲关系(港)/性福拉警报(台)/子嗣无忧/孩子没题目/孩子们没事/题目不在孩子
◎片  名 The Kids Are All Right
◎年  代 2010
◎产  地 美国
◎类  别 剧情/笑剧/同性/家庭
◎语  言 英语
◎上映日期 2010-07-30(美国)
◎豆瓣评分 7.5/10 from 28,918 users
◎豆瓣链接 https://movie.douban.com/subject/3569969/
◎片  长 106分钟
◎导  演 丽莎·查罗及第 Lisa Cholodenko
◎主  演 朱丽安·摩尔 Julianne Moore
      安妮特·贝宁 Annette Bening
      马克·鲁弗洛 Mark Ruffalo
      米娅·华希科沃斯卡 Mia Wasikowska
      乔什·哈切森 Josh Hutcherson
      亚雅·达科斯塔 Yaya DaCosta
      库努尔·夏尔马 Kunal Sharma
      艾迪·哈塞尔 Eddie Hassell
      佐莎·马梅特 Zosia Mamet
      华金·加里多 Joaquín Garrido
      莉萨·艾斯纳 Lisa Eisner
      萨沙·斯皮尔伯格 Sasha Spielberg

◎简  介

  影片加入了2010年的圣丹斯电影节,刊行版权以480万美圆的价格被焦点影业买走,成为了那届圣丹斯上最值钱的电影。
  妮可(安妮特·贝宁 Annette Bening 饰)和朱尔斯(朱丽安·摩尔Julianne Moore 饰)是一对相伴很久的同性朋友。并有2个孩子:顿时要18岁的乔妮(米娅·华希科沃斯卡 Mia Wasikowska 饰)和15岁的莱塞(乔什·哈切森 Josh Hutcherson 饰)。妮可的医生职业很有压力经常轻忽了朱尔斯日子还算承平的过着,直到有一天,莱塞向姐姐倡议,他想和阿谁捐出自己精子的汉子见一面。由于姐姐已经到了18岁,她有权利向家里提出这个要求。妮可和和朱尔斯赞成了姐弟俩的愿望,他们见到了在生物学上的父亲保罗(马克·鲁弗洛 Mark Ruffalo 饰)。可是碰头以后会发生什么呢?这个安静而完竣的家庭会是以出现裂缝么?

◎获奖情况

  第83届奥斯卡金像奖  (2011)
  最好影片(提名) 加里吉尔伯特 / 席琳·拉特雷 / Jeffrey Levy-Hinte
  最好女配角(提名) 安妮特·贝宁
  最好男配角(提名) 马克·鲁弗洛
  最好原创剧本(提名) 丽莎·查罗及第 / 斯图尔特·布拉姆博格

  第60届柏林国际电影节  (2010)
  泰迪熊奖 最好电影 丽莎·查罗及第

  第68届金球奖  (2011)
  电影类 最好音乐/笑剧片
  电影类 音乐/笑剧片最好女配角 安妮特·贝宁
  电影类 音乐/笑剧片最好女配角(提名) 朱丽安·摩尔
  电影类 最好编剧(提名) 丽莎·查罗及第 / 斯图尔特·布拉姆博格

  第76届纽约影评人协会奖  (2010)
  最好女配角 安妮特·贝宁
  最好男配角 马克·鲁弗洛
  最好剧本 丽莎·查罗及第 / 斯图尔特·布拉姆博格

  第11届美国电影学会奖  (2010)
  年度佳片

  第9届华盛顿影评人协会奖  (2010)
  最好女配角(提名) 安妮特·贝宁
  最好原创剧本(提名) 丽莎·查罗及第 / 斯图尔特·布拉姆博格
  最好群戏(提名)

  第31届波士顿影评人协会奖  (2010)
  最好女配角(提名) 安妮特·贝宁
  最好群像表演(提名)

  第23届芝加哥影评人协会奖  (2010)
  最好女配角(提名) 安妮特·贝宁
  最好男配角(提名) 马克·鲁弗洛
  最好原创剧本(提名) 丽莎·查罗及第 / 斯图尔特·布拉姆博格

  第10届凤凰城影评人协会奖  (2010)
  最好女配角(提名) 安妮特·贝宁 / 朱丽安·摩尔
  最好男配角(提名) 马克·鲁弗洛
  最好原创剧本(提名) 丽莎·查罗及第 / 斯图尔特·布拉姆博格 / 丽莎·查罗及第 / 斯图尔特·布拉姆博格
  最好群像表演(提名)
  十佳影片

  第19届东南影评人协会奖  (2010)
  十大佳片

  1. Video
  2. ID                                       : 1
  3. Format                                   : AVC
  4. Format/Info                              : Advanced Video Codec
  5. Format profile                           : [url=/cdn-cgi/l/email-protection][email protected][/url]
  6. Format settings, CABAC                   : Yes
  7. Format settings, ReFrames                : 4 frames
  8. Codec ID                                 : V_MPEG4/ISO/AVC
  9. Duration                                 : 1h 46mn
  10. Bit rate                                 : 9 188 Kbps
  11. Width                                    : 1 920 pixels
  12. Height                                   : 1 040 pixels
  13. Display aspect ratio                     : 1.85:1
  14. Frame rate mode                          : Constant
  15. Frame rate                               : 23.976 (24000/1001) fps
  16. Color space                              : YUV
  17. Chroma subsampling                       : 4:2:0
  18. Bit depth                                : 8 bits
  19. Scan type                                : Progressive
  20. Bits/(Pixel*Frame)                       : 0.192
  21. Stream size                              : 6.66 GiB (84%)
  22. Writing library                          : x264 core 107 r1745 4785e8e
  23. Encoding settings                        : cabac=1 / ref=4 / deblock=1:0:0 / analyse=0x3:0x113 / me=umh / subme=8 / psy=1 / psy_rd=1.00:0.20 / mixed_ref=1 / me_range=16 / chroma_me=1 / trellis=1 / 8x8dct=1 / cqm=0 / deadzone=21,11 / fast_pskip=1 / chroma_qp_offset=-3 / threads=12 / sliced_threads=0 / nr=0 / decimate=1 / interlaced=0 / constrained_intra=0 / bframes=3 / b_pyramid=2 / b_adapt=1 / b_bias=0 / direct=3 / weightb=1 / open_gop=0 / weightp=2 / keyint=250 / keyint_min=23 / scenecut=40 / intra_refresh=0 / rc_lookahead=40 / rc=2pass / mbtree=1 / bitrate=9188 / ratetol=1.0 / qcomp=0.60 / qpmin=10 / qpmax=51 / qpstep=4 / cplxblur=20.0 / qblur=0.5 / ip_ratio=1.40 / aq=1:1.00
  24. Language                                 : English
  25. Default                                  : Yes
  26. Forced                                   : No

  27. Audio
  28. ID                                       : 2
  29. Format                                   : DTS
  30. Format/Info                              : Digital Theater Systems
  31. Mode                                     : 16
  32. Format settings, Endianness              : Big
  33. Codec ID                                 : A_DTS
  34. Duration                                 : 1h 46mn
  35. Bit rate mode                            : Constant
  36. Bit rate                                 : 1 509 Kbps
  37. Channel(s)                               : 6 channels
  38. Channel positions                        : Front: L C R, Side: L R, LFE
  39. Sampling rate                            : 48.0 KHz
  40. Frame rate                               : 93.750 fps (512 spf)
  41. Bit depth                                : 24 bits
  42. Compression mode                         : Lossy
  43. Stream size                              : 1.12 GiB (14%)
  44. Language                                 : English
  45. Default                                  : Yes
  46. Forced                                   : No

  47. Text
  48. ID                                       : 3
  49. Format                                   : UTF-8
  50. Codec ID                                 : S_TEXT/UTF8
  51. Codec ID/Info                            : UTF-8 Plain Text
  52. Language                                 : English
  53. Default                                  : No
  54. Forced                                   : No

  55. Menu
  56. 00:00:00.000                             : en:00:00:00.000
  57. 00:08:43.565                             : en:00:08:43.565
  58. 00:13:32.687                             : en:00:13:32.687
  59. 00:20:14.547                             : en:00:20:14.547
  60. 00:26:34.802                             : en:00:26:34.802
  61. 00:30:35.584                             : en:00:30:35.584
  62. 00:35:04.394                             : en:00:35:04.394
  63. 00:39:27.532                             : en:00:39:27.532
  64. 00:44:23.703                             : en:00:44:23.703
  65. 00:50:01.415                             : en:00:50:01.415
  66. 00:53:29.415                             : en:00:53:29.415
  67. 00:57:50.217                             : en:00:57:50.217
  68. 01:02:55.981                             : en:01:02:55.981
  69. 01:06:26.399                             : en:01:06:26.399
  70. 01:11:06.179                             : en:01:11:06.179
  71. 01:19:28.097                             : en:01:19:28.097
  72. 01:23:17.910                             : en:01:23:17.910
  73. 01:28:53.870                             : en:01:28:53.870
  74. 01:35:33.603                             : en:01:35:33.603
  75. 01:42:22.178                             : en:01:42:22.178
  76. 00:00:17.615                             : en:00:00:17.615
复制代码

复制代码

孩子们都很好/非单亲关系 The.Kids.Are.All.Right.2010.1080p.Bluray.x264-CBGB 7.94GB-2.png 孩子们都很好/非单亲关系 The.Kids.Are.All.Right.2010.1080p.Bluray.x264-CBGB 7.94GB-3.png 孩子们都很好/非单亲关系 The.Kids.Are.All.Right.2010.1080p.Bluray.x264-CBGB 7.94GB-4.png 孩子们都很好/非单亲关系 The.Kids.Are.All.Right.2010.1080p.Bluray.x264-CBGB 7.94GB-5.png 孩子们都很好/非单亲关系 The.Kids.Are.All.Right.2010.1080p.Bluray.x264-CBGB 7.94GB-6.png 孩子们都很好/非单亲关系 The.Kids.Are.All.Right.2010.1080p.Bluray.x264-CBGB 7.94GB-7.png







回复

使用道具 举报

懒得打字嘛,点击右侧快捷回复 【右侧内容,后台自定义】
您需要登录后才可以回帖 登录 | 立即加入

本版积分规则

Archiver|小黑屋| 蓝光电影网 |网站地图

Copyright © 2021 Comsenz Inc. Powered by 蓝光电影网

蓝光电影网

本站内容由用户自主分享和转载自互联网,转载目的在于传递更多信息,并不代表本网赞同其观点和对其真实性负责。

如有侵权、违反国家法律政策行为,请联系我们,我们会第一时间及时清除和处理!

举报反馈邮箱:[email protected]

快速回复 返回顶部 返回列表