找回密码

蓝光电影网

查看: 974|回复: 0

[动画] 51号星球/外星51 Planet.51.2009.1080p.Bluray.x264-CBGB 6.56GB

[复制链接]
蓝光币
623
发表于 2018-9-12 10:46:32 | 显示全部楼层 |阅读模式

51号星球/外星51 Planet.51.2009.1080p.Bluray.x264-CBGB 6.56GB-1.jpg
◎译  名 51号星球/外星51(港)/第51号星球
◎片  名 Planet 51
◎年  代 2009
◎产  地 西班牙/英国/美国
◎类  别 动画/冒险/笑剧/家庭/奇异/科幻
◎语  言 英语/西班牙
◎上映日期 2009-11-20
◎豆瓣评分 6.8/10 from 9,691 users
◎豆瓣链接 https://movie.douban.com/subject/2042279/
◎片  长 USA: 91 分钟
◎导  演 Jorge Blanco
◎主  演 道恩·强森 Dwayne Johnson
      杰西卡·贝尔 Jessica Biel
      贾斯汀·朗 Justin Long
      加里·奥德曼 Gary Oldman
      西恩·威廉·斯科特 Seann William Scott
      约翰·克立斯 John Cleese
      Freddie Benedict
      Alan Marriott
      马修·豪勒 Mathew Horne
      詹姆斯·柯登 James Corden

◎简  介

  在一颗名为51号星球的行星上,居住着一群通体绿色的高聪明生物,他们的文化高度发财,生活安宁幸运。不外他们也有自己的发急,那就是远在几百光年之外的地球人,他们生怕会遭到地球人的入侵和杀戮。雷(Justin Long 音)是一个热衷星球研讨的青年,他和地球上的小青年没什么两样,做练习报告、跟朋友聊天、追女朋友、找工作。这一日,一艘来自地球的宇航飞船来临51号星球,且恰好落在雷的院子里。宇航员查理·T·巴克(“巨石”强森 Dwayne Johnson 音)在当地引发一系列发急,自己也遭到不小的惊吓。
  由于久长以来的宣传,51号星球的居民生怕地球人会对自己形成危险。万般无法之下,巴克船主找到雷,希望他能帮助自己回到正被当地居民围观的飞船,出发返回地球。而另一方面,当地防卫军也针对“入侵”的地球人展开了行动。巴克船主终极能否回到故乡呢?

◎获奖情况

  第23届欧洲电影奖  (2010)
  最好动画片(提名)

  第24届西班牙戈雅奖  (2010)
  最好动画片

  1. Video
  2. ID                                       : 1
  3. Format                                   : AVC
  4. Format/Info                              : Advanced Video Codec
  5. Format profile                           : [url=/cdn-cgi/l/email-protection][email protected][/url]
  6. Format settings, CABAC                   : Yes
  7. Format settings, ReFrames                : 4 frames
  8. Codec ID                                 : V_MPEG4/ISO/AVC
  9. Duration                                 : 1 h 31 min
  10. Bit rate                                 : 8 805 kb/s
  11. Width                                    : 1 920 pixels
  12. Height                                   : 816 pixels
  13. Display aspect ratio                     : 2.35:1
  14. Frame rate mode                          : Constant
  15. Frame rate                               : 23.976 (24000/1001) FPS
  16. Color space                              : YUV
  17. Chroma subsampling                       : 4:2:0
  18. Bit depth                                : 8 bits
  19. Scan type                                : Progressive
  20. Bits/(Pixel*Frame)                       : 0.234
  21. Stream size                              : 5.47 GiB (83%)
  22. Writing library                          : x264 core 85 r1442 781d300
  23. Encoding settings                        : cabac=1 / ref=5 / deblock=1:0:0 / analyse=0x3:0x113 / me=umh / subme=7 / psy=1 / psy_rd=1.00:0.20 / mixed_ref=1 / me_range=16 / chroma_me=1 / trellis=1 / 8x8dct=1 / cqm=0 / deadzone=21,11 / fast_pskip=1 / chroma_qp_offset=-3 / threads=6 / sliced_threads=0 / nr=0 / decimate=1 / mbaff=0 / constrained_intra=0 / bframes=3 / b_pyramid=1 / b_adapt=1 / b_bias=0 / direct=3 / wpredb=1 / wpredp=2 / keyint=250 / keyint_min=25 / scenecut=40 / intra_refresh=0 / rc_lookahead=40 / rc=2pass / mbtree=1 / bitrate=8805 / ratetol=1.0 / qcomp=0.60 / qpmin=10 / qpmax=51 / qpstep=4 / cplxblur=20.0 / qblur=0.5 / ip_ratio=1.40 / aq=1:1.00
  24. Language                                 : English
  25. Default                                  : Yes
  26. Forced                                   : No

  27. Audio
  28. ID                                       : 2
  29. Format                                   : DTS
  30. Format/Info                              : Digital Theater Systems
  31. Mode                                     : 16
  32. Format settings, Endianness              : Big
  33. Codec ID                                 : A_DTS
  34. Duration                                 : 1 h 31 min
  35. Bit rate mode                            : Constant
  36. Bit rate                                 : 1 509 kb/s
  37. Channel(s)                               : 6 channels
  38. Channel positions                        : Front: L C R, Side: L R, LFE
  39. Sampling rate                            : 48.0 kHz
  40. Frame rate                               : 93.750 FPS (512 spf)
  41. Bit depth                                : 24 bits
  42. Compression mode                         : Lossy
  43. Stream size                              : 982 MiB (15%)
  44. Language                                 : English
  45. Default                                  : Yes
  46. Forced                                   : No

  47. Text
  48. ID                                       : 3
  49. Format                                   : UTF-8
  50. Codec ID                                 : S_TEXT/UTF8
  51. Codec ID/Info                            : UTF-8 Plain Text
  52. Language                                 : English
  53. Default                                  : No
  54. Forced                                   : No

  55. Menu
  56. 00:00:00.000                             : en:00:00:00.000
  57. 00:06:46.239                             : en:00:06:46.239
  58. 00:11:59.510                             : en:00:11:59.510
  59. 00:18:10.256                             : en:00:18:10.256
  60. 00:21:23.324                             : en:00:21:23.324
  61. 00:26:07.733                             : en:00:26:07.733
  62. 00:31:02.778                             : en:00:31:02.778
  63. 00:33:43.563                             : en:00:33:43.563
  64. 00:42:59.202                             : en:00:42:59.202
  65. 00:47:48.866                             : en:00:47:48.866
  66. 00:53:15.275                             : en:00:53:15.275
  67. 01:00:46.768                             : en:01:00:46.768
  68. 01:07:15.615                             : en:01:07:15.615
  69. 01:13:01.794                             : en:01:13:01.794
  70. 01:17:19.093                             : en:01:17:19.093
  71. 01:19:50.119                             : en:01:19:50.119
复制代码

复制代码

51号星球/外星51 Planet.51.2009.1080p.Bluray.x264-CBGB 6.56GB-2.png 51号星球/外星51 Planet.51.2009.1080p.Bluray.x264-CBGB 6.56GB-3.png 51号星球/外星51 Planet.51.2009.1080p.Bluray.x264-CBGB 6.56GB-4.png 51号星球/外星51 Planet.51.2009.1080p.Bluray.x264-CBGB 6.56GB-5.png 51号星球/外星51 Planet.51.2009.1080p.Bluray.x264-CBGB 6.56GB-6.png 51号星球/外星51 Planet.51.2009.1080p.Bluray.x264-CBGB 6.56GB-7.png






回复

使用道具 举报

懒得打字嘛,点击右侧快捷回复 【右侧内容,后台自定义】
您需要登录后才可以回帖 登录 | 立即加入

本版积分规则

Archiver|小黑屋| 蓝光电影网 |网站地图

Copyright © 2021 Comsenz Inc. Powered by 蓝光电影网

蓝光电影网

本站内容由用户自主分享和转载自互联网,转载目的在于传递更多信息,并不代表本网赞同其观点和对其真实性负责。

如有侵权、违反国家法律政策行为,请联系我们,我们会第一时间及时清除和处理!

举报反馈邮箱:[email protected]

快速回复 返回顶部 返回列表