找回密码

蓝光电影网

查看: 1059|回复: 2

[纪录] 黑豹党:革命先锋 The.Black.Panthers.Vanguard.Of.The.Revolution.2015.1080p.BluRay.x264-BRMP 8.74GB

[复制链接]
蓝光币
623
发表于 2018-9-12 10:55:17 | 显示全部楼层 |阅读模式


◎译  名 黑豹党:反动先锋
◎片  名 The Black Panthers: Vanguard of the Revolution
◎年  代 2014
◎产  地 美国
◎类  别 记载片
◎语  言 英语
◎上映日期 2015-09-18(美国)
◎豆瓣评分 /10 from 0 users
◎豆瓣链接 https://movie.douban.com/subject/26279358/
◎片  长 115分钟
◎导  演 斯坦利·尼尔森 Stanley Nelson
◎主  演 Angela Arnold
      Erica Ball
      Rhon G. Flatts
      Eric Lockley
      Nola Nelson
      Stu Richel
      Jason Torres
      Trudy Williams

◎简  介

  This feature-length documentary tells of the rise and fall of the Black Panther Party, one of the 20th century’s most alluring and controversial organizations that captivated the world’s attention for nearly 50 years.

◎获奖情况

  第87届美国国家批评协会奖  (2015)
  五佳记载片

  1. Video
  2. ID                                       : 1
  3. Format                                   : AVC
  4. Format/Info                              : Advanced Video Codec
  5. Format profile                           : [url=/cdn-cgi/l/email-protection][email protected][/url]
  6. Format settings, CABAC                   : Yes
  7. Format settings, ReFrames                : 4 frames
  8. Codec ID                                 : V_MPEG4/ISO/AVC
  9. Duration                                 : 1h 54mn
  10. Bit rate                                 : 9 430 Kbps
  11. Width                                    : 1 920 pixels
  12. Height                                   : 1 080 pixels
  13. Display aspect ratio                     : 16:9
  14. Frame rate mode                          : Constant
  15. Frame rate                               : 23.976 (24000/1001) fps
  16. Color space                              : YUV
  17. Chroma subsampling                       : 4:2:0
  18. Bit depth                                : 8 bits
  19. Scan type                                : Progressive
  20. Bits/(Pixel*Frame)                       : 0.190
  21. Stream size                              : 7.53 GiB (86%)
  22. Writing library                          : x264 core 148 r2665 a01e339
  23. Encoding settings                        : cabac=1 / ref=4 / deblock=1:0:0 / analyse=0x3:0x133 / me=umh / subme=7 / psy=1 / psy_rd=1.00:0.00 / mixed_ref=1 / me_range=16 / chroma_me=1 / trellis=1 / 8x8dct=1 / cqm=0 / deadzone=21,11 / fast_pskip=0 / chroma_qp_offset=-2 / threads=12 / lookahead_threads=2 / sliced_threads=0 / nr=0 / decimate=1 / interlaced=0 / bluray_compat=0 / constrained_intra=0 / bframes=3 / b_pyramid=2 / b_adapt=1 / b_bias=0 / direct=1 / weightb=1 / open_gop=0 / weightp=2 / keyint=240 / keyint_min=23 / scenecut=40 / intra_refresh=0 / rc_lookahead=40 / rc=2pass / mbtree=1 / bitrate=9430 / ratetol=1.0 / qcomp=0.60 / qpmin=10 / qpmax=51 / qpstep=4 / cplxblur=20.0 / qblur=0.5 / ip_ratio=1.40 / aq=1:1.00
  24. Default                                  : Yes
  25. Forced                                   : No

  26. Audio
  27. ID                                       : 2
  28. Format                                   : DTS
  29. Format/Info                              : Digital Theater Systems
  30. Mode                                     : 16
  31. Format settings, Endianness              : Big
  32. Codec ID                                 : A_DTS
  33. Duration                                 : 1h 54mn
  34. Bit rate mode                            : Constant
  35. Bit rate                                 : 1 509 Kbps
  36. Channel(s)                               : 2 channels
  37. Channel positions                        : Front: L R
  38. Sampling rate                            : 48.0 KHz
  39. Frame rate                               : 93.750 fps (512 spf)
  40. Bit depth                                : 24 bits
  41. Compression mode                         : Lossy
  42. Stream size                              : 1.21 GiB (14%)
  43. Language                                 : English
  44. Default                                  : Yes
  45. Forced                                   : No
复制代码

复制代码









回复

使用道具 举报

蓝光币
109
发表于 2021-7-17 09:14:02 | 显示全部楼层

这个帖子不回对不起自己!这部资源太难找了。
回复 支持 反对

使用道具 举报

懒得打字嘛,点击右侧快捷回复 【右侧内容,后台自定义】
您需要登录后才可以回帖 登录 | 立即加入

本版积分规则

Archiver|小黑屋| 蓝光电影网 |网站地图

Copyright © 2021 Comsenz Inc. Powered by 蓝光电影网

蓝光电影网

本站内容由用户自主分享和转载自互联网,转载目的在于传递更多信息,并不代表本网赞同其观点和对其真实性负责。

如有侵权、违反国家法律政策行为,请联系我们,我们会第一时间及时清除和处理!

举报反馈邮箱:[email protected]

快速回复 返回顶部 返回列表