找回密码

蓝光电影网

查看: 827|回复: 0

[传记] 洛约拉·圣·罗耀拉 Ignacio.of.Loyola.2016.1080p.BluRay.x264-GETiT 8.75GB

[复制链接]
蓝光币
623
发表于 2018-9-12 10:55:38 | 显示全部楼层 |阅读模式


◎译  名 洛约拉·圣·罗耀拉
◎片  名 Ignacio de Loyola
◎年  代 2016
◎产  地 菲律宾/西班牙
◎类  别 列传/历史
◎语  言 英语
◎上映日期 2016-07-27
◎豆瓣评分 /10 from 0 users
◎豆瓣链接 https://movie.douban.com/subject/26949420/
◎片  长 118分钟
◎导  演 Paolo Dy
◎主  演 Andreas Mu?oz
      哈维尔·戈迪诺 Javier Godino
      胡里奥·佩里兰 Julio Perillán

◎简  介

  '假如你能听到天主的声音,你会想要守旧奥秘吗?'按照耶稣会开创人圣依纳爵·罗耀拉回忆录改编的历史剧。这个故事是关于一个兵士、一个布满恶习和暴力的人在尝试转向光亮的进程中,被迫与心里的恶魔抗争直到灭亡的边沿。菲律宾制片人,在西班牙和菲律宾拍摄,电影报告了他在潘普洛纳勇敢但徒劳的战役,他与沮丧和近自杀情感的斗争,在异端裁判所得审判,以及他最初的无罪宣布。——译自IMDb上的先容

  1. Video
  2. ID                                       : 1
  3. Format                                   : AVC
  4. Format/Info                              : Advanced Video Codec
  5. Format profile                           : [url=/cdn-cgi/l/email-protection][email protected][/url]
  6. Format settings                          : CABAC / 5 Ref Frames
  7. Format settings, CABAC                   : Yes
  8. Format settings, RefFrames               : 5 frames
  9. Codec ID                                 : V_MPEG4/ISO/AVC
  10. Duration                                 : 2 h 6 min
  11. Bit rate                                 : 8 778 kb/s
  12. Width                                    : 1 920 pixels
  13. Height                                   : 800 pixels
  14. Display aspect ratio                     : 2.40:1
  15. Frame rate mode                          : Constant
  16. Frame rate                               : 23.976 (24000/1001) FPS
  17. Color space                              : YUV
  18. Chroma subsampling                       : 4:2:0
  19. Bit depth                                : 8 bits
  20. Scan type                                : Progressive
  21. Bits/(Pixel*Frame)                       : 0.238
  22. Stream size                              : 7.73 GiB (88%)
  23. Writing library                          : x264 core 155 r2901 7d0ff22
  24. Encoding settings                        : cabac=1 / ref=5 / deblock=1:0:0 / analyse=0x3:0x133 / me=umh / subme=7 / psy=1 / psy_rd=1.00:0.00 / mixed_ref=1 / me_range=16 / chroma_me=1 / trellis=2 / 8x8dct=1 / cqm=0 / deadzone=21,11 / fast_pskip=0 / chroma_qp_offset=-2 / threads=6 / lookahead_threads=1 / sliced_threads=0 / nr=0 / decimate=1 / interlaced=0 / bluray_compat=0 / constrained_intra=0 / bframes=3 / b_pyramid=2 / b_adapt=1 / b_bias=0 / direct=3 / weightb=1 / open_gop=0 / weightp=2 / keyint=250 / keyint_min=23 / scenecut=40 / intra_refresh=0 / rc_lookahead=50 / rc=2pass / mbtree=1 / bitrate=8778 / ratetol=1.0 / qcomp=0.60 / qpmin=0 / qpmax=69 / qpstep=4 / cplxblur=20.0 / qblur=0.5 / ip_ratio=1.40 / aq=1:1.00
  25. Language                                 : English
  26. Default                                  : Yes
  27. Forced                                   : No

  28. Audio
  29. ID                                       : 2
  30. Format                                   : DTS
  31. Format/Info                              : Digital Theater Systems
  32. Mode                                     : 16
  33. Format settings, Endianness              : Big
  34. Codec ID                                 : A_DTS
  35. Duration                                 : 2 h 6 min
  36. Bit rate mode                            : Constant
  37. Bit rate                                 : 1 152 kb/s
  38. Channel(s)                               : 6 channels
  39. Channel positions                        : Front: L C R, Side: L R, LFE
  40. Sampling rate                            : 48.0 kHz
  41. Frame rate                               : 93.750 FPS (512 SPF)
  42. Bit depth                                : 24 bits
  43. Compression mode                         : Lossy
  44. Stream size                              : 1.01 GiB (12%)
  45. Title                                    : dts
  46. Language                                 : English
  47. Default                                  : Yes
  48. Forced                                   : No

  49. Menu
  50. 00:00:00.000                             : en:00:00:00.000
  51. 00:04:33.940                             : en:00:04:33.940
  52. 00:14:04.677                             : en:00:14:04.677
  53. 00:22:01.487                             : en:00:22:01.487
  54. 00:30:51.850                             : en:00:30:51.850
  55. 00:39:28.700                             : en:00:39:28.700
  56. 00:47:27.511                             : en:00:47:27.511
  57. 00:55:22.027                             : en:00:55:22.027
  58. 01:04:41.419                             : en:01:04:41.419
  59. 01:12:20.920                             : en:01:12:20.920
  60. 01:18:17.651                             : en:01:18:17.651
  61. 01:26:50.163                             : en:01:26:50.163
  62. 01:30:11.656                             : en:01:30:11.656
  63. 01:41:54.358                             : en:01:41:54.358
  64. 01:51:30.350                             : en:01:51:30.350
  65. 01:57:32.045                             : en:01:57:32.045
复制代码

复制代码








回复

使用道具 举报

懒得打字嘛,点击右侧快捷回复 【右侧内容,后台自定义】
您需要登录后才可以回帖 登录 | 立即加入

本版积分规则

Archiver|小黑屋| 蓝光电影网 |网站地图

Copyright © 2021 Comsenz Inc. Powered by 蓝光电影网

蓝光电影网

本站内容由用户自主分享和转载自互联网,转载目的在于传递更多信息,并不代表本网赞同其观点和对其真实性负责。

如有侵权、违反国家法律政策行为,请联系我们,我们会第一时间及时清除和处理!

举报反馈邮箱:[email protected]

快速回复 返回顶部 返回列表