找回密码

蓝光电影网

查看: 1006|回复: 0

[冒险] 生死狂澜/激流四勇士 Deliverance.1972.1080p.BluRay.x264-SAiMORNY 7.65GB

[复制链接]
蓝光币
623
发表于 2018-9-12 11:03:00 | 显示全部楼层 |阅读模式

生死狂澜/急流四勇士 Deliverance.1972.1080p.BluRay.x264-SAiMORNY 7.65GB-1.jpg
◎译  名 生死狂澜/急流四勇士
◎片  名 Deliverance
◎年  代 1972
◎产  地 美国
◎类  别 冒险/剧情/惊悚
◎语  言 英语
◎上映日期 1972-07-30
◎豆瓣评分 7.5/10 from 998 users
◎豆瓣链接 https://movie.douban.com/subject/1293561/
◎片  长 110 分钟
◎导  演 约翰·保曼 John Boorman
◎主  演 强·沃特 Jon Voight
      伯特·雷诺兹 Burt Reynolds
      尼德·巴蒂 Ned Beatty
      罗尼·考克斯 Ronny Cox
      Ed Ramey

◎简  介

  因发电厂筑坝施工,卡胡瓦西河将要变成湖区而消失,路易斯(伯特·雷诺兹 Burt Reynolds 饰)、艾德(强·沃特 Jon Voight 饰)、波比(尼德·巴蒂 Ned Beatty 饰)和德鲁(罗尼·考克斯 Ronny Cox 饰)四个爱好冒险和自然的好友结伴,计划在周末前往卡胡瓦西河飘流。四人在行将成为湖区的冷落小镇找到领导,终究到达河岸,简单预备后就起头了冒险。第二天早上,试图狩猎的艾德一无所获,在强健灵敏的路易斯眼前颇感无趣,与胖子波比先行下河探路,但是他们遇上了两个持枪的陌生人,对方将他们控制并施以欺侮,路易斯赶到后将陌生人杀死。四人仓促逃离此地,此时,河水变得狰狞,急流与岩石处处致命,一场冒险之旅成为了夺命之旅……

◎获奖情况

  第45届奥斯卡金像奖  (1973)
  最好影片(提名) 约翰·保曼
  最好导演(提名) 约翰·保曼
  最好剪辑(提名) 汤姆·普里斯特利

  1. Video
  2. ID                                       : 1
  3. Format                                   : AVC
  4. Format/Info                              : Advanced Video Codec
  5. Format profile                           : [url=/cdn-cgi/l/email-protection][email protected][/url]
  6. Format settings                          : CABAC / 5 Ref Frames
  7. Format settings, CABAC                   : Yes
  8. Format settings, ReFrames                : 5 frames
  9. Codec ID                                 : V_MPEG4/ISO/AVC
  10. Duration                                 : 1 h 49 min
  11. Bit rate                                 : 8 536 kb/s
  12. Width                                    : 1 920 pixels
  13. Height                                   : 800 pixels
  14. Display aspect ratio                     : 2.40:1
  15. Frame rate mode                          : Constant
  16. Frame rate                               : 23.976 (24000/1001) FPS
  17. Color space                              : YUV
  18. Chroma subsampling                       : 4:2:0
  19. Bit depth                                : 8 bits
  20. Scan type                                : Progressive
  21. Bits/(Pixel*Frame)                       : 0.232
  22. Stream size                              : 6.35 GiB (83%)
  23. Writing library                          : x264 core 129 r2230 1cffe9f
  24. Encoding settings                        : cabac=1 / ref=5 / deblock=1:0:0 / analyse=0x3:0x133 / me=umh / subme=7 / psy=1 / psy_rd=1.00:0.00 / mixed_ref=1 / me_range=16 / chroma_me=1 / trellis=1 / 8x8dct=1 / cqm=0 / deadzone=21,11 / fast_pskip=0 / chroma_qp_offset=-2 / threads=6 / lookahead_threads=1 / sliced_threads=0 / nr=0 / decimate=1 / interlaced=0 / bluray_compat=0 / constrained_intra=0 / bframes=3 / b_pyramid=2 / b_adapt=2 / b_bias=0 / direct=3 / weightb=1 / open_gop=0 / weightp=2 / keyint=250 / keyint_min=23 / scenecut=40 / intra_refresh=0 / rc_lookahead=50 / rc=2pass / mbtree=1 / bitrate=8536 / ratetol=1.0 / qcomp=0.60 / qpmin=0 / qpmax=69 / qpstep=4 / cplxblur=20.0 / qblur=0.5 / ip_ratio=1.40 / aq=1:1.00
  25. Language                                 : English
  26. Default                                  : No
  27. Forced                                   : No

  28. Audio
  29. ID                                       : 2
  30. Format                                   : DTS
  31. Format/Info                              : Digital Theater Systems
  32. Muxing mode                              : Header stripping
  33. Codec ID                                 : A_DTS
  34. Duration                                 : 1 h 49 min
  35. Bit rate mode                            : Constant
  36. Bit rate                                 : 1 509 kb/s
  37. Channel(s)                               : 6 channels
  38. Channel positions                        : Front: L C R, Side: L R, LFE
  39. Sampling rate                            : 48.0 kHz
  40. Frame rate                               : 93.750 FPS (512 SPF)
  41. Bit depth                                : 24 bits
  42. Compression mode                         : Lossy
  43. Stream size                              : 1.15 GiB (15%)
  44. Language                                 : English
  45. Default                                  : Yes
  46. Forced                                   : No

  47. Text
  48. ID                                       : 3
  49. Format                                   : UTF-8
  50. Codec ID                                 : S_TEXT/UTF8
  51. Codec ID/Info                            : UTF-8 Plain Text
  52. Language                                 : English
  53. Default                                  : Yes
  54. Forced                                   : No
复制代码

复制代码

生死狂澜/急流四勇士 Deliverance.1972.1080p.BluRay.x264-SAiMORNY 7.65GB-2.png 生死狂澜/急流四勇士 Deliverance.1972.1080p.BluRay.x264-SAiMORNY 7.65GB-3.png 生死狂澜/急流四勇士 Deliverance.1972.1080p.BluRay.x264-SAiMORNY 7.65GB-4.png





回复

使用道具 举报

懒得打字嘛,点击右侧快捷回复 【右侧内容,后台自定义】
您需要登录后才可以回帖 登录 | 立即加入

本版积分规则

Archiver|小黑屋| 蓝光电影网 |网站地图

Copyright © 2021 Comsenz Inc. Powered by 蓝光电影网

蓝光电影网

本站内容由用户自主分享和转载自互联网,转载目的在于传递更多信息,并不代表本网赞同其观点和对其真实性负责。

如有侵权、违反国家法律政策行为,请联系我们,我们会第一时间及时清除和处理!

举报反馈邮箱:[email protected]

快速回复 返回顶部 返回列表