找回密码

蓝光电影网

查看: 590|回复: 0

[喜剧] 大搜索 Fuzz.1972.1080p.BluRay.x264-SADPANDA 7.64GB

[复制链接]
蓝光币
623
发表于 2018-9-12 11:08:12 | 显示全部楼层 |阅读模式

大搜索 Fuzz.1972.1080p.BluRay.x264-SADPANDA 7.64GB-1.jpg
◎译  名 大搜索
◎片  名 Fuzz
◎年  代 1972
◎产  地 美国
◎类  别 笑剧/犯罪/剧情
◎语  言 英语
◎上映日期 1972-07-14
◎豆瓣评分 /10 from 0 users
◎豆瓣链接 https://movie.douban.com/subject/1301879/
◎片  长 92 分钟
◎导  演 Richard A. Colla
◎主  演 伯特·雷诺兹
      Jack Weston
      汤姆·斯凯里特

◎简  介

  影片报告波士顿警朴直搜寻一个勒索这座城市的炸弹客。

  1. Video
  2. ID                                       : 1
  3. Format                                   : AVC
  4. Format/Info                              : Advanced Video Codec
  5. Format profile                           : [url=/cdn-cgi/l/email-protection][email protected][/url]
  6. Format settings, CABAC                   : Yes
  7. Format settings, ReFrames                : 4 frames
  8. Codec ID                                 : V_MPEG4/ISO/AVC
  9. Duration                                 : 1h 32mn
  10. Bit rate                                 : 11.5 Mbps
  11. Width                                    : 1 920 pixels
  12. Height                                   : 1 040 pixels
  13. Display aspect ratio                     : 1.85:1
  14. Frame rate mode                          : Constant
  15. Frame rate                               : 23.976 (24000/1001) fps
  16. Color space                              : YUV
  17. Chroma subsampling                       : 4:2:0
  18. Bit depth                                : 8 bits
  19. Scan type                                : Progressive
  20. Bits/(Pixel*Frame)                       : 0.240
  21. Stream size                              : 7.47 GiB (98%)
  22. Writing library                          : x264 core 148 r2744 b97ae06
  23. Encoding settings                        : cabac=1 / ref=4 / deblock=1:-3:-3 / analyse=0x3:0x113 / me=umh / subme=8 / psy=1 / psy_rd=1.00:0.25 / mixed_ref=1 / me_range=24 / chroma_me=1 / trellis=1 / 8x8dct=1 / cqm=0 / deadzone=21,11 / fast_pskip=1 / chroma_qp_offset=-4 / threads=30 / lookahead_threads=5 / sliced_threads=0 / nr=0 / decimate=1 / interlaced=0 / bluray_compat=0 / constrained_intra=0 / bframes=3 / b_pyramid=2 / b_adapt=1 / b_bias=0 / direct=3 / weightb=1 / open_gop=0 / weightp=2 / keyint=240 / keyint_min=24 / scenecut=40 / intra_refresh=0 / rc_lookahead=50 / rc=2pass / mbtree=1 / bitrate=11511 / ratetol=1.0 / qcomp=0.60 / qpmin=0 / qpmax=69 / qpstep=4 / cplxblur=20.0 / qblur=0.5 / ip_ratio=1.40 / aq=1:0.75
  24. Default                                  : Yes
  25. Forced                                   : No

  26. Audio
  27. ID                                       : 2
  28. Format                                   : FLAC
  29. Format/Info                              : Free Lossless Audio Codec
  30. Codec ID                                 : A_FLAC
  31. Duration                                 : 1h 32mn
  32. Bit rate mode                            : Variable
  33. Bit rate                                 : 270 Kbps
  34. Channel(s)                               : 2 channels
  35. Channel positions                        : Front: L R
  36. Sampling rate                            : 48.0 KHz
  37. Frame rate                               : 11.719 fps (4096 spf)
  38. Bit depth                                : 16 bits
  39. Stream size                              : 180 MiB (2%)
  40. Writing library                          : libFLAC 1.2.1 (UTC 2007-09-17)
  41. Language                                 : English
  42. Default                                  : Yes
  43. Forced                                   : No

  44. Menu
  45. 00:00:00.000                             : en:00:00:00.000
  46. 00:13:21.091                             : en:00:13:21.091
  47. 00:23:30.866                             : en:00:23:30.866
  48. 00:32:17.352                             : en:00:32:17.352
  49. 00:40:25.797                             : en:00:40:25.797
  50. 00:50:59.264                             : en:00:50:59.264
  51. 01:02:09.599                             : en:01:02:09.599
  52. 01:18:59.192                             : en:01:18:59.192
  53. 01:33:14.587                             : en:01:33:14.587
复制代码

复制代码

大搜索 Fuzz.1972.1080p.BluRay.x264-SADPANDA 7.64GB-2.jpg







回复

使用道具 举报

懒得打字嘛,点击右侧快捷回复 【右侧内容,后台自定义】
您需要登录后才可以回帖 登录 | 立即加入

本版积分规则

Archiver|小黑屋| 蓝光电影网 |网站地图

Copyright © 2021 Comsenz Inc. Powered by 蓝光电影网

蓝光电影网

本站内容由用户自主分享和转载自互联网,转载目的在于传递更多信息,并不代表本网赞同其观点和对其真实性负责。

如有侵权、违反国家法律政策行为,请联系我们,我们会第一时间及时清除和处理!

举报反馈邮箱:[email protected]

快速回复 返回顶部 返回列表