找回密码

蓝光电影网

查看: 719|回复: 0

[剧情] 黄昏夕阳 The.End.1978.1080p.BluRay.x264-SADPANDA 9.84GB

[复制链接]
蓝光币
623
发表于 2018-9-12 11:11:59 | 显示全部楼层 |阅读模式

傍晚落日 The.End.1978.1080p.BluRay.x264-SADPANDA 9.84GB-1.jpg
◎译  名 傍晚落日
◎片  名 The End
◎年  代 1978
◎产  地 美国
◎类  别 剧情/笑剧
◎语  言 英语
◎上映日期 1978-05-10
◎豆瓣评分 /10 from 0 users
◎豆瓣链接 https://movie.douban.com/subject/1298427/
◎片  长 100 分钟
◎导  演 伯特 雷诺兹 (Burt Reynolds) / 詹姆斯 贝斯特 (James Best (I))
◎主  演 伯特·雷诺兹 Burt Reynolds
      多姆·德路易斯 Dom DeLuise
      莎莉·菲尔德 Sally Field
      乔安娜·伍德沃德 Joanne Woodward
      玛娜·洛伊 Myrna Loy
      克里斯蒂·麦克尼科尔 Kristy McNichol
      罗比·本森 Robby Benson

◎简  介

  None

  1. Video
  2. ID                                       : 1
  3. Format                                   : AVC
  4. Format/Info                              : Advanced Video Codec
  5. Format profile                           : [url=/cdn-cgi/l/email-protection][email protected][/url]
  6. Format settings                          : CABAC / 4 Ref Frames
  7. Format settings, CABAC                   : Yes
  8. Format settings, ReFrames                : 4 frames
  9. Codec ID                                 : V_MPEG4/ISO/AVC
  10. Duration                                 : 1 h 40 min
  11. Bit rate                                 : 12.5 Mb/s
  12. Width                                    : 1 920 pixels
  13. Height                                   : 1 040 pixels
  14. Display aspect ratio                     : 1.85:1
  15. Frame rate mode                          : Constant
  16. Frame rate                               : 23.976 (24000/1001) FPS
  17. Color space                              : YUV
  18. Chroma subsampling                       : 4:2:0
  19. Bit depth                                : 8 bits
  20. Scan type                                : Progressive
  21. Bits/(Pixel*Frame)                       : 0.260
  22. Stream size                              : 8.77 GiB (89%)
  23. Writing library                          : x264 core 148 r2665 a01e339
  24. Encoding settings                        : cabac=1 / ref=4 / deblock=1:-3:-3 / analyse=0x3:0x113 / me=umh / subme=8 / psy=1 / psy_rd=1.00:0.25 / mixed_ref=1 / me_range=24 / chroma_me=1 / trellis=1 / 8x8dct=1 / cqm=0 / deadzone=21,11 / fast_pskip=1 / chroma_qp_offset=-4 / threads=12 / lookahead_threads=2 / sliced_threads=0 / nr=0 / decimate=1 / interlaced=0 / bluray_compat=0 / constrained_intra=0 / bframes=3 / b_pyramid=2 / b_adapt=2 / b_bias=0 / direct=3 / weightb=1 / open_gop=0 / weightp=2 / keyint=240 / keyint_min=24 / scenecut=40 / intra_refresh=0 / rc_lookahead=50 / rc=2pass / mbtree=1 / bitrate=12464 / ratetol=1.0 / qcomp=0.60 / qpmin=0 / qpmax=69 / qpstep=4 / cplxblur=20.0 / qblur=0.5 / vbv_maxrate=62500 / vbv_bufsize=78125 / nal_hrd=none / filler=0 / ip_ratio=1.40 / aq=1:0.50
  25. Default                                  : Yes
  26. Forced                                   : No

  27. Audio
  28. ID                                       : 2
  29. Format                                   : DTS
  30. Format/Info                              : Digital Theater Systems
  31. Codec ID                                 : A_DTS
  32. Duration                                 : 1 h 40 min
  33. Bit rate mode                            : Constant
  34. Bit rate                                 : 1 509 kb/s
  35. Channel(s)                               : 2 channels
  36. Channel positions                        : Front: L R
  37. Sampling rate                            : 48.0 kHz
  38. Frame rate                               : 93.750 FPS (512 SPF)
  39. Bit depth                                : 24 bits
  40. Compression mode                         : Lossy
  41. Stream size                              : 1.06 GiB (11%)
  42. Language                                 : English
  43. Default                                  : Yes
  44. Forced                                   : No

  45. Menu
  46. 00:00:00.000                             : en:00:00:00.000
  47. 00:00:10.928                             : en:00:00:10.928
  48. 00:09:00.874                             : en:00:09:00.874
  49. 00:20:20.553                             : en:00:20:20.553
  50. 00:32:47.424                             : en:00:32:47.424
  51. 00:43:59.971                             : en:00:43:59.971
  52. 01:03:29.931                             : en:01:03:29.931
  53. 01:14:25.378                             : en:01:14:25.378
  54. 01:28:44.236                             : en:01:28:44.236
  55. 01:40:55.883                             : en:01:40:55.883
复制代码

复制代码

傍晚落日 The.End.1978.1080p.BluRay.x264-SADPANDA 9.84GB-2.png 傍晚落日 The.End.1978.1080p.BluRay.x264-SADPANDA 9.84GB-3.png 傍晚落日 The.End.1978.1080p.BluRay.x264-SADPANDA 9.84GB-4.png







回复

使用道具 举报

懒得打字嘛,点击右侧快捷回复 【右侧内容,后台自定义】
您需要登录后才可以回帖 登录 | 立即加入

本版积分规则

Archiver|小黑屋| 蓝光电影网 |网站地图

Copyright © 2021 Comsenz Inc. Powered by 蓝光电影网

蓝光电影网

本站内容由用户自主分享和转载自互联网,转载目的在于传递更多信息,并不代表本网赞同其观点和对其真实性负责。

如有侵权、违反国家法律政策行为,请联系我们,我们会第一时间及时清除和处理!

举报反馈邮箱:[email protected]

快速回复 返回顶部 返回列表