找回密码

蓝光电影网

查看: 989|回复: 0

[喜剧] 敬畏/情陷高达 Godard.Mon.Amour.2017.LiMiTED.1080p.BluRay.x264-CADAVER 7.64GB

[复制链接]
蓝光币
623
发表于 2018-9-12 11:16:45 | 显示全部楼层 |阅读模式

畏敬/情陷高达 Godard.Mon.Amour.2017.LiMiTED.1080p.BluRay.x264-CADAVER 7.64GB-1.jpg
◎译  名 畏敬/情陷高达(台)/高达:反动性改变(港)
◎片  名 Le Redoutable
◎年  代 2017
◎产  地 法国/意大利/缅甸
◎类  别 笑剧/列传/恋爱
◎语  言 法语/英语/意大利语
◎上映日期 2017-05-21(戛纳电影节)/2017-09-13(法国)
◎豆瓣评分 6.6/10 from 1,636 users
◎豆瓣链接 https://movie.douban.com/subject/26785583/
◎片  长 107分钟
◎导  演 迈克尔·哈扎纳维希乌斯 Michel Hazanavicius
◎主  演 路易·加瑞尔 Louis Garrel
      斯塔西·马汀 Stacy Martin
      贝热尼丝·贝乔 Bérénice Bejo
      米莎·莱斯科特 Micha Lescot
      格莱高利·嘉德波瓦 Grégory Gadebois
      费利克斯·基赛勒 Félix Kysyl
      亚瑟·欧瑟 Arthur Orcier
      马克·弗赖兹 Marc Fraize
      霍曼·顾皮勒 Romain Goupil
      让-皮埃尔·莫基 Jean-Pierre Mocky
      圭多·卡普里诺 Guido Caprino

◎简  介

  影片由奥斯卡最好影片《艺术家》的导演米歇尔·哈扎纳维希乌斯执导,聚焦上世纪六七十年月的法国影坛,要报告戈达尔和女作家/演员安妮·维亚泽姆斯基之间实在的恋爱故事,由路易斯·加瑞尔出演五月风暴期间的戈达尔。

◎获奖情况

  第70届戛纳电影节  (2017)
  主比赛单元 金棕榈奖(提名) 米歇尔·阿扎纳维西于斯

  第43届法国凯撒电影奖  (2018)
  最好导演(提名) 米歇尔·阿扎纳维西于斯
  最好男配角(提名) 路易·加瑞尔
  最好改编剧本(提名) 米歇尔·阿扎纳维西于斯
  最好摄影(提名)
  最好布景(提名)

  1. Video
  2. ID                                       : 1
  3. Format                                   : AVC
  4. Format/Info                              : Advanced Video Codec
  5. Format profile                           : [url=/cdn-cgi/l/email-protection][email protected][/url]
  6. Format settings                          : CABAC / 4 Ref Frames
  7. Format settings, CABAC                   : Yes
  8. Format settings, RefFrames               : 4 frames
  9. Codec ID                                 : V_MPEG4/ISO/AVC
  10. Duration                                 : 1 h 48 min
  11. Bit rate                                 : 8 627 kb/s
  12. Width                                    : 1 920 pixels
  13. Height                                   : 1 040 pixels
  14. Display aspect ratio                     : 1.85:1
  15. Frame rate mode                          : Constant
  16. Frame rate                               : 23.976 (24000/1001) FPS
  17. Color space                              : YUV
  18. Chroma subsampling                       : 4:2:0
  19. Bit depth                                : 8 bits
  20. Scan type                                : Progressive
  21. Bits/(Pixel*Frame)                       : 0.180
  22. Stream size                              : 6.50 GiB (85%)
  23. Writing library                          : x264 core 157 r2932 303c484
  24. Encoding settings                        : cabac=1 / ref=4 / deblock=1:-3:-3 / analyse=0x3:0x133 / me=umh / subme=8 / psy=1 / psy_rd=1.00:0.00 / mixed_ref=1 / me_range=16 / chroma_me=1 / trellis=1 / 8x8dct=1 / cqm=0 / deadzone=21,11 / fast_pskip=0 / chroma_qp_offset=-2 / threads=24 / lookahead_threads=4 / sliced_threads=0 / nr=0 / decimate=1 / interlaced=0 / bluray_compat=0 / constrained_intra=0 / bframes=3 / b_pyramid=2 / b_adapt=1 / b_bias=0 / direct=3 / weightb=1 / open_gop=0 / weightp=2 / keyint=250 / keyint_min=23 / scenecut=40 / intra_refresh=0 / rc_lookahead=50 / rc=2pass / mbtree=1 / bitrate=8627 / ratetol=1.0 / qcomp=0.60 / qpmin=0 / qpmax=69 / qpstep=4 / cplxblur=20.0 / qblur=0.5 / vbv_maxrate=62500 / vbv_bufsize=78125 / nal_hrd=none / filler=0 / ip_ratio=1.40 / aq=1:1.00
  25. Default                                  : Yes
  26. Forced                                   : No

  27. Audio
  28. ID                                       : 2
  29. Format                                   : DTS
  30. Format/Info                              : Digital Theater Systems
  31. Mode                                     : 16
  32. Format settings, Endianness              : Big
  33. Codec ID                                 : A_DTS
  34. Duration                                 : 1 h 48 min
  35. Bit rate mode                            : Constant
  36. Bit rate                                 : 1 509 kb/s
  37. Channel(s)                               : 6 channels
  38. Channel positions                        : Front: L C R, Side: L R, LFE
  39. Sampling rate                            : 48.0 kHz
  40. Frame rate                               : 93.750 FPS (512 SPF)
  41. Bit depth                                : 24 bits
  42. Compression mode                         : Lossy
  43. Stream size                              : 1.14 GiB (15%)
  44. Language                                 : French
  45. Default                                  : Yes
  46. Forced                                   : No

  47. Text
  48. ID                                       : 3
  49. Format                                   : UTF-8
  50. Codec ID                                 : S_TEXT/UTF8
  51. Codec ID/Info                            : UTF-8 Plain Text
  52. Duration                                 : 1 h 46 min
  53. Bit rate                                 : 64 b/s
  54. Count of elements                        : 1397
  55. Stream size                              : 50.1 KiB (0%)
  56. Language                                 : English
  57. Default                                  : Yes
  58. Forced                                   : No

  59. Menu
  60. 00:00:00.000                             : en:00:00:00.000
  61. 00:13:17.296                             : en:00:13:17.296
  62. 00:23:29.950                             : en:00:23:29.950
  63. 00:34:56.761                             : en:00:34:56.761
  64. 00:43:50.753                             : en:00:43:50.753
  65. 00:52:52.628                             : en:00:52:52.628
  66. 01:04:51.846                             : en:01:04:51.846
  67. 01:10:11.124                             : en:01:10:11.124
  68. 01:27:07.180                             : en:01:27:07.180
  69. 01:39:46.272                             : en:01:39:46.272
复制代码

复制代码

畏敬/情陷高达 Godard.Mon.Amour.2017.LiMiTED.1080p.BluRay.x264-CADAVER 7.64GB-2.jpg







回复

使用道具 举报

懒得打字嘛,点击右侧快捷回复 【右侧内容,后台自定义】
您需要登录后才可以回帖 登录 | 立即加入

本版积分规则

Archiver|小黑屋| 蓝光电影网 |网站地图

Copyright © 2021 Comsenz Inc. Powered by 蓝光电影网

蓝光电影网

本站内容由用户自主分享和转载自互联网,转载目的在于传递更多信息,并不代表本网赞同其观点和对其真实性负责。

如有侵权、违反国家法律政策行为,请联系我们,我们会第一时间及时清除和处理!

举报反馈邮箱:[email protected]

快速回复 返回顶部 返回列表