找回密码

蓝光电影网

查看: 936|回复: 0

[传记] 黑帮大盗 Whitey.United.States.of.America.v.James.J.Bulger.2014.1080p.BluRay.x264-BRMP 7.96GB

[复制链接]
蓝光币
623
发表于 2018-9-12 11:21:43 | 显示全部楼层 |阅读模式

黑帮大盗 Whitey.United.States.of.America.v.James.J.Bulger.2014.1080p.BluRay.x264-BRMP 7.96GB-1.jpg
◎译  名 黑帮大盗
◎片  名 WHITEY: United States of America v. James J. Bulger
◎年  代 2014
◎产  地 美国
◎类  别 列传/犯罪/记载片
◎语  言 英语
◎上映日期 2014-06-27(美国)
◎豆瓣评分 /10 from 0 users
◎豆瓣链接 https://movie.douban.com/subject/25794021/
◎片  长 107分钟
◎导  演 乔·伯灵格 Joe Berlinger
◎主  演 James 'Whitey' Bulger
      David Boeri
      Kevin Weeks
      Kevin Cullen
      Stephen Rakes

◎简  介

  Infamous gangster James “Whitey” Bulger wielded a mystique as the Robin Hood of South Boston. Fabricated in his hometown, Bulger’s legend captured the imagination of the entire country. Separating the man from the myth, this riveting documentary challenges conventional wisdom by detailing shocking new allegations.
  With unprecedented access, filmmaker Joe Berlinger utilizes this past summer's sensational trial against Bulger as a springboard to explore corruption within the highest levels of law enforcement. Embedded for months with retired FBI agents, Massachusetts state police, victims, lawyers, gangsters, journalists, and federal prosecutors, Berlinger scrutinizes Bulger’s relationship with the FBI and Department of Justice—an interaction that allowed him to reign over a criminal empire for decades.
  Academy Award nominee Berlinger returns to the Sundance Film Festival for the sixth time with this mesmerizing and complex account of crime and corruption. WHITEY: United States of America v. James J. Bulger relates a universal tale of human frailty, opportunism, and deception and reveals the often-elusive nature of truth and justice.
  - D.C

  1. Video
  2. ID                                       : 1
  3. Format                                   : AVC
  4. Format/Info                              : Advanced Video Codec
  5. Format profile                           : [url=/cdn-cgi/l/email-protection][email protected][/url]
  6. Format settings, CABAC                   : Yes
  7. Format settings, ReFrames                : 4 frames
  8. Codec ID                                 : V_MPEG4/ISO/AVC
  9. Duration                                 : 1h 47mn
  10. Bit rate                                 : 9 082 Kbps
  11. Width                                    : 1 920 pixels
  12. Height                                   : 1 080 pixels
  13. Display aspect ratio                     : 16:9
  14. Frame rate mode                          : Constant
  15. Frame rate                               : 23.976 fps
  16. Color space                              : YUV
  17. Chroma subsampling                       : 4:2:0
  18. Bit depth                                : 8 bits
  19. Scan type                                : Progressive
  20. Bits/(Pixel*Frame)                       : 0.183
  21. Stream size                              : 6.65 GiB (84%)
  22. Writing library                          : x264 core 142 r2479 dd79a61
  23. Encoding settings                        : cabac=1 / ref=4 / deblock=1:0:0 / analyse=0x3:0x133 / me=umh / subme=7 / psy=1 / psy_rd=1.00:0.00 / mixed_ref=1 / me_range=16 / chroma_me=1 / trellis=1 / 8x8dct=1 / cqm=0 / deadzone=21,11 / fast_pskip=0 / chroma_qp_offset=-2 / threads=12 / lookahead_threads=2 / sliced_threads=0 / nr=0 / decimate=1 / interlaced=0 / bluray_compat=0 / constrained_intra=0 / bframes=3 / b_pyramid=2 / b_adapt=1 / b_bias=0 / direct=1 / weightb=1 / open_gop=0 / weightp=2 / keyint=240 / keyint_min=23 / scenecut=40 / intra_refresh=0 / rc_lookahead=40 / rc=2pass / mbtree=1 / bitrate=9082 / ratetol=1.0 / qcomp=0.60 / qpmin=0 / qpmax=69 / qpstep=4 / cplxblur=20.0 / qblur=0.5 / ip_ratio=1.40 / aq=1:1.00
  24. Language                                 : English
  25. Default                                  : Yes
  26. Forced                                   : No
  27. DURATION                                 : 01:47:25.356000000
  28. NUMBER_OF_FRAMES                         : 154534
  29. NUMBER_OF_BYTES                          : 7313445279
  30. _STATISTICS_WRITING_APP                  : mkvmerge v7.2.0 (\'On Every Street\') 32bit built on Sep 13 2014 15:42:11
  31. _STATISTICS_WRITING_DATE_UTC             : 2014-10-16 12:58:15
  32. _STATISTICS_TAGS                         : BPS DURATION NUMBER_OF_FRAMES NUMBER_OF_BYTES

  33. Audio
  34. ID                                       : 2
  35. Format                                   : DTS
  36. Format/Info                              : Digital Theater Systems
  37. Mode                                     : 16
  38. Format settings, Endianness              : Big
  39. Codec ID                                 : A_DTS
  40. Duration                                 : 1h 47mn
  41. Bit rate mode                            : Constant
  42. Bit rate                                 : 1 509 Kbps
  43. Channel(s)                               : 6 channels
  44. Channel positions                        : Front: L C R, Side: L R, LFE
  45. Sampling rate                            : 48.0 KHz
  46. Bit depth                                : 24 bits
  47. Compression mode                         : Lossy
  48. Stream size                              : 1.13 GiB (14%)
  49. Language                                 : English
  50. Default                                  : Yes
  51. Forced                                   : No

  52. Text
  53. ID                                       : 3
  54. Format                                   : UTF-8
  55. Codec ID                                 : S_TEXT/UTF8
  56. Codec ID/Info                            : UTF-8 Plain Text
  57. Language                                 : English
  58. Default                                  : Yes
  59. Forced                                   : No
复制代码

复制代码

黑帮大盗 Whitey.United.States.of.America.v.James.J.Bulger.2014.1080p.BluRay.x264-BRMP 7.96GB-2.jpg






回复

使用道具 举报

懒得打字嘛,点击右侧快捷回复 【右侧内容,后台自定义】
您需要登录后才可以回帖 登录 | 立即加入

本版积分规则

Archiver|小黑屋| 蓝光电影网 |网站地图

Copyright © 2021 Comsenz Inc. Powered by 蓝光电影网

蓝光电影网

本站内容由用户自主分享和转载自互联网,转载目的在于传递更多信息,并不代表本网赞同其观点和对其真实性负责。

如有侵权、违反国家法律政策行为,请联系我们,我们会第一时间及时清除和处理!

举报反馈邮箱:[email protected]

快速回复 返回顶部 返回列表