找回密码

蓝光电影网

查看: 614|回复: 1

[喜剧] 伟大的星期三 Big.Wednesday.1978.1080p.BluRay.x264-SiNNERS 10.93GB

[复制链接]
蓝光币
623
发表于 2018-9-12 11:32:22 | 显示全部楼层 |阅读模式

巨大的星期三 Big.Wednesday.1978.1080p.BluRay.x264-SiNNERS 10.93GB-1.jpg
◎译  名 巨大的星期三
◎片  名 Big Wednesday
◎年  代 1978
◎产  地 美国
◎类  别 笑剧/剧情/活动
◎语  言 英语
◎上映日期 1978-11-24
◎豆瓣评分 /10 from 0 users
◎豆瓣链接 https://movie.douban.com/subject/1306053/
◎片  长 120 分钟
◎导  演 约翰·米利厄斯 John Milius
◎主  演 冉-迈克尔·文森特 Jan-Michael Vincent
      威廉姆·卡特 William Katt
      加里·布塞 Gary Busey

◎简  介

  None

  1. Video
  2. ID                                       : 1
  3. Format                                   : AVC
  4. Format/Info                              : Advanced Video Codec
  5. Format profile                           : [url=/cdn-cgi/l/email-protection][email protected][/url]
  6. Format settings                          : CABAC / 5 Ref Frames
  7. Format settings, CABAC                   : Yes
  8. Format settings, RefFrames               : 5 frames
  9. Codec ID                                 : V_MPEG4/ISO/AVC
  10. Duration                                 : 1 h 59 min
  11. Bit rate                                 : 11.6 Mb/s
  12. Width                                    : 1 920 pixels
  13. Height                                   : 800 pixels
  14. Display aspect ratio                     : 2.40:1
  15. Frame rate mode                          : Constant
  16. Frame rate                               : 23.976 (24000/1001) FPS
  17. Color space                              : YUV
  18. Chroma subsampling                       : 4:2:0
  19. Bit depth                                : 8 bits
  20. Scan type                                : Progressive
  21. Bits/(Pixel*Frame)                       : 0.314
  22. Stream size                              : 9.67 GiB (88%)
  23. Writing library                          : x264 core 157 r2932 303c484
  24. Encoding settings                        : cabac=1 / ref=5 / deblock=1:-3:-3 / analyse=0x3:0x113 / me=umh / subme=8 / psy=1 / psy_rd=1.00:0.00 / mixed_ref=1 / me_range=16 / chroma_me=1 / trellis=2 / 8x8dct=1 / cqm=0 / deadzone=21,11 / fast_pskip=0 / chroma_qp_offset=-2 / threads=24 / lookahead_threads=4 / sliced_threads=0 / nr=0 / decimate=1 / interlaced=0 / bluray_compat=0 / constrained_intra=0 / bframes=3 / b_pyramid=2 / b_adapt=1 / b_bias=0 / direct=1 / weightb=1 / open_gop=0 / weightp=2 / keyint=250 / keyint_min=23 / scenecut=40 / intra_refresh=0 / rc_lookahead=40 / rc=2pass / mbtree=1 / bitrate=11567 / ratetol=1.0 / qcomp=0.60 / qpmin=0 / qpmax=69 / qpstep=4 / cplxblur=20.0 / qblur=0.5 / ip_ratio=1.40 / aq=1:1.00
  25. Language                                 : English
  26. Default                                  : Yes
  27. Forced                                   : No

  28. Audio
  29. ID                                       : 2
  30. Format                                   : DTS
  31. Format/Info                              : Digital Theater Systems
  32. Mode                                     : 16
  33. Format settings, Endianness              : Big
  34. Codec ID                                 : A_DTS
  35. Duration                                 : 1 h 59 min
  36. Bit rate mode                            : Constant
  37. Bit rate                                 : 1 509 kb/s
  38. Channel(s)                               : 2 channels
  39. Channel positions                        : Front: L R
  40. Sampling rate                            : 48.0 kHz
  41. Frame rate                               : 93.750 FPS (512 SPF)
  42. Bit depth                                : 24 bits
  43. Compression mode                         : Lossy
  44. Stream size                              : 1.26 GiB (12%)
  45. Language                                 : English
  46. Default                                  : Yes
  47. Forced                                   : No

  48. Text #1
  49. ID                                       : 3
  50. Format                                   : UTF-8
  51. Codec ID                                 : S_TEXT/UTF8
  52. Codec ID/Info                            : UTF-8 Plain Text
  53. Duration                                 : 1 h 59 min
  54. Bit rate                                 : 42 b/s
  55. Count of elements                        : 1453
  56. Stream size                              : 37.0 KiB (0%)
  57. Language                                 : English
  58. Default                                  : No
  59. Forced                                   : No

  60. Text #2
  61. ID                                       : 4
  62. Format                                   : UTF-8
  63. Codec ID                                 : S_TEXT/UTF8
  64. Codec ID/Info                            : UTF-8 Plain Text
  65. Duration                                 : 1 h 59 min
  66. Bit rate                                 : 44 b/s
  67. Count of elements                        : 1522
  68. Stream size                              : 38.7 KiB (0%)
  69. Title                                    : SDH
  70. Language                                 : English
  71. Default                                  : No
  72. Forced                                   : No

  73. Menu
  74. 00:00:00.000                             : en:00:00:00.000
  75. 00:02:54.591                             : en:00:02:54.591
  76. 00:07:06.009                             : en:00:07:06.009
  77. 00:09:47.879                             : en:00:09:47.879
  78. 00:12:30.708                             : en:00:12:30.708
  79. 00:16:19.228                             : en:00:16:19.228
  80. 00:20:57.715                             : en:00:20:57.715
  81. 00:26:46.188                             : en:00:26:46.188
  82. 00:30:47.012                             : en:00:30:47.012
  83. 00:36:11.628                             : en:00:36:11.628
  84. 00:37:46.973                             : en:00:37:46.973
  85. 00:41:23.189                             : en:00:41:23.189
  86. 00:44:03.099                             : en:00:44:03.099
  87. 00:48:09.720                             : en:00:48:09.720
  88. 00:52:47.122                             : en:00:52:47.122
  89. 00:58:46.106                             : en:00:58:46.106
  90. 01:03:25.135                             : en:01:03:25.135
  91. 01:05:47.193                             : en:01:05:47.193
  92. 01:10:09.288                             : en:01:10:09.288
  93. 01:16:05.436                             : en:01:16:05.436
  94. 01:17:48.622                             : en:01:17:48.622
  95. 01:23:04.980                             : en:01:23:04.980
  96. 01:30:22.792                             : en:01:30:22.792
  97. 01:33:43.993                             : en:01:33:43.993
  98. 01:38:03.419                             : en:01:38:03.419
  99. 01:41:14.819                             : en:01:41:14.819
  100. 01:45:23.234                             : en:01:45:23.234
  101. 01:49:45.037                             : en:01:49:45.037
  102. 01:52:43.924                             : en:01:52:43.924
  103. 01:57:14.903                             : en:01:57:14.903
复制代码

复制代码

巨大的星期三 Big.Wednesday.1978.1080p.BluRay.x264-SiNNERS 10.93GB-2.jpg







回复

使用道具 举报

懒得打字嘛,点击右侧快捷回复 【右侧内容,后台自定义】
您需要登录后才可以回帖 登录 | 立即加入

本版积分规则

Archiver|小黑屋| 蓝光电影网 |网站地图

Copyright © 2021 Comsenz Inc. Powered by 蓝光电影网

蓝光电影网

本站内容由用户自主分享和转载自互联网,转载目的在于传递更多信息,并不代表本网赞同其观点和对其真实性负责。

如有侵权、违反国家法律政策行为,请联系我们,我们会第一时间及时清除和处理!

举报反馈邮箱:[email protected]

快速回复 返回顶部 返回列表