找回密码

蓝光电影网

查看: 1754|回复: 3

[动作] 黑客帝国/廿二世纪杀人网络 The.Matrix.1999.REMASTERED.RERIP.1080p.BluRay.x264.DTS-HD.MA.7.1-SWTYBLZ 18.14GB

[复制链接]
蓝光币
623
发表于 2018-9-12 11:39:58 | 显示全部楼层 |阅读模式

黑客帝国/廿二世纪杀人收集 The.Matrix.1999.REMASTERED.RERIP.1080p.BluRay.x264.DTS-HD.MA.7.1-SWTYBLZ 18.14GB-1.jpg
◎译  名 黑客帝国/廿二世纪杀人收集(港)/骇客使命(台)
◎片  名 The Matrix
◎年  代 1999
◎产  地 美国/澳大利亚
◎类  别 行动/科幻
◎语  言 英语
◎上映日期 1999-03-31(美国)
◎豆瓣评分 8.9/10 from 332,902 users
◎豆瓣链接 https://movie.douban.com/subject/1291843/
◎片  长 136分钟
◎导  演 安迪·沃卓斯基 Andy Wachowski / 拉娜·沃卓斯基 Lana Wachowski
◎主  演 基努·李维斯 Keanu Reeves
      凯瑞-安·莫斯 Carrie-Anne Moss
      劳伦斯·菲什伯恩 Laurence Fishburne
      雨果·维文 Hugo Weaving
      格洛丽亚·福斯特 Gloria Foster
      乔·潘托里亚诺 Joe Pantoliano
      马库斯·钟 Marcus Chong
      朱利安·阿拉汗加 Julian Arahanga
      马特·多兰 Matt Doran

◎简  介

  未几的未来,收集黑客尼奥(基奴李维斯 饰)对这个看似一般的现实天下发生了思疑。他结识了黑客崔妮蒂(凯莉·安·摩丝 饰),并见到了黑客构造的首领墨菲斯(劳伦斯·菲什伯恩 饰)。墨菲斯告诉他,现实天下实在是由一个名叫“母体”的计较机野生智能系统控制,人们就像他们饲养的动物,没有自在和思惟,而尼奥就是可以拯救人类的救世主。
  可是,救赎之路历来都不会风平浪静,到底那里才是实在的天下?若何才能打败那些超人一样的特勤?尼奥能否是人类的希望?这是黑客的帝国,法式和代码接待大师的到来。.

◎获奖情况

  第72届奥斯卡金像奖  (2000)
  最好剪辑 扎克·斯伯格
  最好视觉结果 加内克·西尔斯 / John Gaeta / Steve Courtley / Jon Thum
  最好音效剪辑 Dane A. Davis
  最好声响 约翰·T·赖茨 / 大卫·李 / 大卫·E·坎贝尔 / 格雷格·鲁德洛夫

  第53届英国电影学院奖  (2000)
  电影奖 最好摄影(提名) 比尔·波普
  电影奖 最好剪辑(提名) 扎克·斯伯格
  电影奖 最好艺术指导(提名) Owen Paterson
  电影奖 最好特别视觉结果 John Gaeta / Jon Thum / Steve Courtley / 加内克·西尔斯
  电影奖 最好音效 约翰·T·赖茨 / 大卫·李 / 大卫·E·坎贝尔 / Dane A. Davis / 格雷格·鲁德洛夫
  电影奖 最好音效(提名) 约翰·T·赖茨 / 大卫·李 / 大卫·E·坎贝尔 / Dane A. Davis / 格雷格·鲁德洛夫

  第23届日本电影学院奖  (2000)
  最好外语片(提名)

  1. Video
  2. ID                                       : 1
  3. Format                                   : AVC
  4. Format/Info                              : Advanced Video Codec
  5. Format profile                           : [url=/cdn-cgi/l/email-protection][email protected][/url]
  6. Format settings                          : CABAC / 5 Ref Frames
  7. Format settings, CABAC                   : Yes
  8. Format settings, ReFrames                : 5 frames
  9. Codec ID                                 : V_MPEG4/ISO/AVC
  10. Duration                                 : 2 h 16 min
  11. Bit rate                                 : 15.1 Mb/s
  12. Width                                    : 1 920 pixels
  13. Height                                   : 800 pixels
  14. Display aspect ratio                     : 2.40:1
  15. Frame rate mode                          : Constant
  16. Frame rate                               : 23.976 (24000/1001) FPS
  17. Color space                              : YUV
  18. Chroma subsampling                       : 4:2:0
  19. Bit depth                                : 8 bits
  20. Scan type                                : Progressive
  21. Bits/(Pixel*Frame)                       : 0.410
  22. Stream size                              : 14.4 GiB (79%)
  23. Title                                    : The.Matrix.1999.REMASTERED.RERIP.1080p.BluRay.x264.DTS-HD.MA.7.1-SWTYBLZ
  24. Writing library                          : x264 core 155 r2901 7d0ff22
  25. Encoding settings                        : cabac=1 / ref=5 / deblock=1:-1:-1 / analyse=0x3:0x133 / me=umh / subme=10 / psy=1 / psy_rd=1.00:0.15 / mixed_ref=1 / me_range=48 / chroma_me=1 / trellis=2 / 8x8dct=1 / cqm=0 / deadzone=21,11 / fast_pskip=1 / chroma_qp_offset=-3 / threads=25 / lookahead_threads=4 / sliced_threads=0 / nr=0 / decimate=0 / interlaced=0 / bluray_compat=0 / constrained_intra=0 / bframes=8 / b_pyramid=2 / b_adapt=2 / b_bias=0 / direct=3 / weightb=1 / open_gop=0 / weightp=2 / keyint=250 / keyint_min=23 / scenecut=40 / intra_refresh=0 / rc_lookahead=60 / rc=crf / mbtree=1 / crf=17.0 / qcomp=0.60 / qpmin=0 / qpmax=69 / qpstep=4 / ip_ratio=1.40 / aq=1:1.00
  26. Default                                  : Yes
  27. Forced                                   : No

  28. Audio
  29. ID                                       : 2
  30. Format                                   : DTS
  31. Format/Info                              : Digital Theater Systems
  32. Format profile                           : MA / Core
  33. Codec ID                                 : A_DTS
  34. Duration                                 : 2 h 16 min
  35. Bit rate mode                            : Variable / Constant
  36. Bit rate                                 : 3 746 kb/s / 1 509 kb/s
  37. Channel(s)                               : 8 channels / 6 channels
  38. Channel positions                        : Front: L C R, Side: L R, Back: L R, LFE / Front: L C R, Side: L R, LFE
  39. Sampling rate                            : 48.0 kHz
  40. Frame rate                               : 93.750 FPS (512 SPF)
  41. Bit depth                                : 24 bits
  42. Compression mode                         : Lossless / Lossy
  43. Stream size                              : 3.57 GiB (20%)
  44. Title                                    : The.Matrix.1999.REMASTERED.RERIP.1080p.BluRay.x264.DTS-HD.MA.7.1-SWTYBLZ
  45. Language                                 : English
  46. Default                                  : Yes
  47. Forced                                   : No

  48. Text #1
  49. ID                                       : 3
  50. Format                                   : UTF-8
  51. Codec ID                                 : S_TEXT/UTF8
  52. Codec ID/Info                            : UTF-8 Plain Text
  53. Duration                                 : 2 h 7 min
  54. Bit rate                                 : 40 b/s
  55. Count of elements                        : 1342
  56. Stream size                              : 37.8 KiB (0%)
  57. Title                                    : The.Matrix.1999.REMASTERED.RERIP.1080p.BluRay.x264.DTS-HD.MA.7.1-SWTYBLZ
  58. Language                                 : English
  59. Default                                  : Yes
  60. Forced                                   : No

  61. Text #2
  62. ID                                       : 4
  63. Format                                   : PGS
  64. Muxing mode                              : zlib
  65. Codec ID                                 : S_HDMV/PGS
  66. Codec ID/Info                            : Picture based subtitle format used on BDs/HD-DVDs
  67. Duration                                 : 2 h 15 min
  68. Bit rate                                 : 21.3 kb/s
  69. Count of elements                        : 2746
  70. Stream size                              : 20.6 MiB (0%)
  71. Title                                    : English-PGS
  72. Language                                 : English
  73. Default                                  : No
  74. Forced                                   : No

  75. Text #3
  76. ID                                       : 5
  77. Format                                   : PGS
  78. Muxing mode                              : zlib
  79. Codec ID                                 : S_HDMV/PGS
  80. Codec ID/Info                            : Picture based subtitle format used on BDs/HD-DVDs
  81. Duration                                 : 2 h 15 min
  82. Bit rate                                 : 22.3 kb/s
  83. Count of elements                        : 2844
  84. Stream size                              : 21.6 MiB (0%)
  85. Title                                    : German-PGS
  86. Language                                 : German
  87. Default                                  : No
  88. Forced                                   : No

  89. Text #4
  90. ID                                       : 6
  91. Format                                   : PGS
  92. Muxing mode                              : zlib
  93. Codec ID                                 : S_HDMV/PGS
  94. Codec ID/Info                            : Picture based subtitle format used on BDs/HD-DVDs
  95. Duration                                 : 2 h 7 min
  96. Bit rate                                 : 17.7 kb/s
  97. Count of elements                        : 2477
  98. Stream size                              : 16.2 MiB (0%)
  99. Title                                    : Japanese-PGS
  100. Language                                 : Japanese
  101. Default                                  : No
  102. Forced                                   : No

  103. Text #5
  104. ID                                       : 7
  105. Format                                   : PGS
  106. Muxing mode                              : zlib
  107. Codec ID                                 : S_HDMV/PGS
  108. Codec ID/Info                            : Picture based subtitle format used on BDs/HD-DVDs
  109. Duration                                 : 2 h 15 min
  110. Bit rate                                 : 20.6 kb/s
  111. Count of elements                        : 2702
  112. Stream size                              : 20.0 MiB (0%)
  113. Title                                    : Italian-PGS
  114. Language                                 : Italian
  115. Default                                  : No
  116. Forced                                   : No

  117. Text #6
  118. ID                                       : 8
  119. Format                                   : PGS
  120. Muxing mode                              : zlib
  121. Codec ID                                 : S_HDMV/PGS
  122. Codec ID/Info                            : Picture based subtitle format used on BDs/HD-DVDs
  123. Duration                                 : 2 h 15 min
  124. Bit rate                                 : 18.9 kb/s
  125. Count of elements                        : 2660
  126. Stream size                              : 18.4 MiB (0%)
  127. Title                                    : Spanish-PGS
  128. Language                                 : Spanish
  129. Default                                  : No
  130. Forced                                   : No

  131. Text #7
  132. ID                                       : 9
  133. Format                                   : PGS
  134. Muxing mode                              : zlib
  135. Codec ID                                 : S_HDMV/PGS
  136. Codec ID/Info                            : Picture based subtitle format used on BDs/HD-DVDs
  137. Duration                                 : 2 h 15 min
  138. Bit rate                                 : 17.2 kb/s
  139. Count of elements                        : 2620
  140. Stream size                              : 16.7 MiB (0%)
  141. Title                                    : Chinese-PGS
  142. Language                                 : Chinese
  143. Default                                  : No
  144. Forced                                   : No

  145. Text #8
  146. ID                                       : 10
  147. Format                                   : PGS
  148. Muxing mode                              : zlib
  149. Codec ID                                 : S_HDMV/PGS
  150. Codec ID/Info                            : Picture based subtitle format used on BDs/HD-DVDs
  151. Duration                                 : 2 h 15 min
  152. Bit rate                                 : 14.1 kb/s
  153. Count of elements                        : 2600
  154. Stream size                              : 13.7 MiB (0%)
  155. Title                                    : Korean-PGS
  156. Language                                 : Korean
  157. Default                                  : No
  158. Forced                                   : No

  159. Text #9
  160. ID                                       : 11
  161. Format                                   : PGS
  162. Muxing mode                              : zlib
  163. Codec ID                                 : S_HDMV/PGS
  164. Codec ID/Info                            : Picture based subtitle format used on BDs/HD-DVDs
  165. Duration                                 : 2 h 15 min
  166. Bit rate                                 : 20.5 kb/s
  167. Count of elements                        : 2606
  168. Stream size                              : 19.9 MiB (0%)
  169. Title                                    : Portuguese-PGS
  170. Language                                 : Portuguese
  171. Default                                  : No
  172. Forced                                   : No

  173. Text #10
  174. ID                                       : 12
  175. Format                                   : PGS
  176. Muxing mode                              : zlib
  177. Codec ID                                 : S_HDMV/PGS
  178. Codec ID/Info                            : Picture based subtitle format used on BDs/HD-DVDs
  179. Duration                                 : 2 h 15 min
  180. Bit rate                                 : 10.3 kb/s
  181. Count of elements                        : 2764
  182. Stream size                              : 9.95 MiB (0%)
  183. Title                                    : Arabic-PGS
  184. Language                                 : Arabic
  185. Default                                  : No
  186. Forced                                   : No

  187. Text #11
  188. ID                                       : 13
  189. Format                                   : PGS
  190. Muxing mode                              : zlib
  191. Codec ID                                 : S_HDMV/PGS
  192. Codec ID/Info                            : Picture based subtitle format used on BDs/HD-DVDs
  193. Duration                                 : 2 h 15 min
  194. Bit rate                                 : 18.7 kb/s
  195. Count of elements                        : 2774
  196. Stream size                              : 18.1 MiB (0%)
  197. Title                                    : Croatian-PGS
  198. Language                                 : Croatian
  199. Default                                  : No
  200. Forced                                   : No

  201. Text #12
  202. ID                                       : 14
  203. Format                                   : PGS
  204. Muxing mode                              : zlib
  205. Codec ID                                 : S_HDMV/PGS
  206. Codec ID/Info                            : Picture based subtitle format used on BDs/HD-DVDs
  207. Duration                                 : 2 h 15 min
  208. Bit rate                                 : 16.6 kb/s
  209. Count of elements                        : 2730
  210. Stream size                              : 16.0 MiB (0%)
  211. Title                                    : Czech-PGS
  212. Language                                 : Czech
  213. Default                                  : No
  214. Forced                                   : No

  215. Text #13
  216. ID                                       : 15
  217. Format                                   : PGS
  218. Muxing mode                              : zlib
  219. Codec ID                                 : S_HDMV/PGS
  220. Codec ID/Info                            : Picture based subtitle format used on BDs/HD-DVDs
  221. Duration                                 : 2 h 15 min
  222. Bit rate                                 : 18.6 kb/s
  223. Count of elements                        : 1844
  224. Stream size                              : 18.0 MiB (0%)
  225. Title                                    : Danish-PGS
  226. Language                                 : Danish
  227. Default                                  : No
  228. Forced                                   : No

  229. Text #14
  230. ID                                       : 16
  231. Format                                   : PGS
  232. Muxing mode                              : zlib
  233. Codec ID                                 : S_HDMV/PGS
  234. Codec ID/Info                            : Picture based subtitle format used on BDs/HD-DVDs
  235. Duration                                 : 2 h 15 min
  236. Bit rate                                 : 18.1 kb/s
  237. Count of elements                        : 1658
  238. Stream size                              : 17.6 MiB (0%)
  239. Title                                    : Finnish-PGS
  240. Language                                 : Finnish
  241. Default                                  : No
  242. Forced                                   : No

  243. Text #15
  244. ID                                       : 17
  245. Format                                   : PGS
  246. Muxing mode                              : zlib
  247. Codec ID                                 : S_HDMV/PGS
  248. Codec ID/Info                            : Picture based subtitle format used on BDs/HD-DVDs
  249. Duration                                 : 2 h 15 min
  250. Bit rate                                 : 19.2 kb/s
  251. Count of elements                        : 2382
  252. Stream size                              : 18.6 MiB (0%)
  253. Title                                    : Greek-PGS
  254. Language                                 : Greek
  255. Default                                  : No
  256. Forced                                   : No

  257. Text #16
  258. ID                                       : 18
  259. Format                                   : PGS
  260. Muxing mode                              : zlib
  261. Codec ID                                 : S_HDMV/PGS
  262. Codec ID/Info                            : Picture based subtitle format used on BDs/HD-DVDs
  263. Duration                                 : 2 h 15 min
  264. Bit rate                                 : 20.0 kb/s
  265. Count of elements                        : 1984
  266. Stream size                              : 19.3 MiB (0%)
  267. Title                                    : Norwegian-PGS
  268. Language                                 : Norwegian
  269. Default                                  : No
  270. Forced                                   : No

  271. Text #17
  272. ID                                       : 19
  273. Format                                   : PGS
  274. Muxing mode                              : zlib
  275. Codec ID                                 : S_HDMV/PGS
  276. Codec ID/Info                            : Picture based subtitle format used on BDs/HD-DVDs
  277. Duration                                 : 2 h 15 min
  278. Bit rate                                 : 18.2 kb/s
  279. Count of elements                        : 2774
  280. Stream size                              : 17.7 MiB (0%)
  281. Title                                    : Hungarian-PGS
  282. Language                                 : Hungarian
  283. Default                                  : No
  284. Forced                                   : No

  285. Text #18
  286. ID                                       : 20
  287. Format                                   : PGS
  288. Muxing mode                              : zlib
  289. Codec ID                                 : S_HDMV/PGS
  290. Codec ID/Info                            : Picture based subtitle format used on BDs/HD-DVDs
  291. Duration                                 : 2 h 15 min
  292. Bit rate                                 : 16.1 kb/s
  293. Count of elements                        : 2770
  294. Stream size                              : 15.6 MiB (0%)
  295. Title                                    : Polish-PGS
  296. Language                                 : Polish
  297. Default                                  : No
  298. Forced                                   : No

  299. Text #19
  300. ID                                       : 21
  301. Format                                   : PGS
  302. Muxing mode                              : zlib
  303. Codec ID                                 : S_HDMV/PGS
  304. Codec ID/Info                            : Picture based subtitle format used on BDs/HD-DVDs
  305. Duration                                 : 2 h 15 min
  306. Bit rate                                 : 21.7 kb/s
  307. Count of elements                        : 2644
  308. Stream size                              : 21.1 MiB (0%)
  309. Title                                    : Portuguese-PGS
  310. Language                                 : Portuguese
  311. Default                                  : No
  312. Forced                                   : No

  313. Text #20
  314. ID                                       : 22
  315. Format                                   : PGS
  316. Muxing mode                              : zlib
  317. Codec ID                                 : S_HDMV/PGS
  318. Codec ID/Info                            : Picture based subtitle format used on BDs/HD-DVDs
  319. Duration                                 : 2 h 7 min
  320. Bit rate                                 : 263 b/s
  321. Count of elements                        : 42
  322. Stream size                              : 246 KiB (0%)
  323. Title                                    : Hungarian-PGS
  324. Language                                 : Hungarian
  325. Default                                  : No
  326. Forced                                   : No

  327. Text #21
  328. ID                                       : 23
  329. Format                                   : PGS
  330. Muxing mode                              : zlib
  331. Codec ID                                 : S_HDMV/PGS
  332. Codec ID/Info                            : Picture based subtitle format used on BDs/HD-DVDs
  333. Duration                                 : 2 h 15 min
  334. Bit rate                                 : 18.3 kb/s
  335. Count of elements                        : 2736
  336. Stream size                              : 17.7 MiB (0%)
  337. Title                                    : Romanian-PGS
  338. Language                                 : Romanian
  339. Default                                  : No
  340. Forced                                   : No

  341. Text #22
  342. ID                                       : 24
  343. Format                                   : PGS
  344. Muxing mode                              : zlib
  345. Codec ID                                 : S_HDMV/PGS
  346. Codec ID/Info                            : Picture based subtitle format used on BDs/HD-DVDs
  347. Duration                                 : 2 h 15 min
  348. Bit rate                                 : 20.6 kb/s
  349. Count of elements                        : 2734
  350. Stream size                              : 20.0 MiB (0%)
  351. Title                                    : Russian-PGS
  352. Language                                 : Russian
  353. Default                                  : No
  354. Forced                                   : No

  355. Text #23
  356. ID                                       : 25
  357. Format                                   : PGS
  358. Muxing mode                              : zlib
  359. Codec ID                                 : S_HDMV/PGS
  360. Codec ID/Info                            : Picture based subtitle format used on BDs/HD-DVDs
  361. Duration                                 : 2 h 15 min
  362. Bit rate                                 : 17.7 kb/s
  363. Count of elements                        : 1740
  364. Stream size                              : 17.2 MiB (0%)
  365. Title                                    : Swedish-PGS
  366. Language                                 : Swedish
  367. Default                                  : No
  368. Forced                                   : No

  369. Text #24
  370. ID                                       : 26
  371. Format                                   : PGS
  372. Muxing mode                              : zlib
  373. Codec ID                                 : S_HDMV/PGS
  374. Codec ID/Info                            : Picture based subtitle format used on BDs/HD-DVDs
  375. Duration                                 : 2 h 15 min
  376. Bit rate                                 : 20.5 kb/s
  377. Count of elements                        : 2604
  378. Stream size                              : 19.9 MiB (0%)
  379. Title                                    : Thai-PGS
  380. Language                                 : Thai
  381. Default                                  : No
  382. Forced                                   : No

  383. Text #25
  384. ID                                       : 27
  385. Format                                   : PGS
  386. Muxing mode                              : zlib
  387. Codec ID                                 : S_HDMV/PGS
  388. Codec ID/Info                            : Picture based subtitle format used on BDs/HD-DVDs
  389. Duration                                 : 2 h 15 min
  390. Bit rate                                 : 19.4 kb/s
  391. Count of elements                        : 2730
  392. Stream size                              : 18.8 MiB (0%)
  393. Title                                    : Turkish-PGS
  394. Language                                 : Turkish
  395. Default                                  : No
  396. Forced                                   : No

  397. Text #26
  398. ID                                       : 28
  399. Format                                   : PGS
  400. Muxing mode                              : zlib
  401. Codec ID                                 : S_HDMV/PGS
  402. Codec ID/Info                            : Picture based subtitle format used on BDs/HD-DVDs
  403. Duration                                 : 2 h 15 min
  404. Bit rate                                 : 205 b/s
  405. Count of elements                        : 36
  406. Stream size                              : 204 KiB (0%)
  407. Title                                    : Czech-PGS
  408. Language                                 : Czech
  409. Default                                  : No
  410. Forced                                   : No

  411. Text #27
  412. ID                                       : 29
  413. Format                                   : PGS
  414. Muxing mode                              : zlib
  415. Codec ID                                 : S_HDMV/PGS
  416. Codec ID/Info                            : Picture based subtitle format used on BDs/HD-DVDs
  417. Duration                                 : 2 h 15 min
  418. Bit rate                                 : 272 b/s
  419. Count of elements                        : 44
  420. Stream size                              : 270 KiB (0%)
  421. Title                                    : Turkish-PGS
  422. Language                                 : Turkish
  423. Default                                  : No
  424. Forced                                   : No

  425. Text #28
  426. ID                                       : 30
  427. Format                                   : PGS
  428. Muxing mode                              : zlib
  429. Codec ID                                 : S_HDMV/PGS
  430. Codec ID/Info                            : Picture based subtitle format used on BDs/HD-DVDs
  431. Duration                                 : 2 h 7 min
  432. Bit rate                                 : 231 b/s
  433. Count of elements                        : 302
  434. Stream size                              : 216 KiB (0%)
  435. Title                                    : Japanese-FORCED-PGS
  436. Language                                 : Japanese
  437. Default                                  : No
  438. Forced                                   : No

  439. Menu
  440. 00:00:00.000                             : en:Chapter 1
  441. 00:03:25.788                             : en:Chapter 2
  442. 00:06:35.645                             : en:Chapter 3
  443. 00:09:42.665                             : en:Chapter 4
  444. 00:11:58.300                             : en:Chapter 5
  445. 00:16:47.423                             : en:Chapter 6
  446. 00:21:33.542                             : en:Chapter 7
  447. 00:25:08.590                             : en:Chapter 8
  448. 00:28:51.146                             : en:Chapter 9
  449. 00:32:25.193                             : en:Chapter 10
  450. 00:35:21.869                             : en:Chapter 11
  451. 00:38:40.901                             : en:Chapter 12
  452. 00:44:22.576                             : en:Chapter 13
  453. 00:46:33.540                             : en:Chapter 14
  454. 00:48:57.851                             : en:Chapter 15
  455. 00:53:31.291                             : en:Chapter 16
  456. 00:56:32.138                             : en:Chapter 17
  457. 00:59:01.287                             : en:Chapter 18
  458. 01:01:08.581                             : en:Chapter 19
  459. 01:05:16.495                             : en:Chapter 20
  460. 01:07:46.812                             : en:Chapter 21
  461. 01:12:33.432                             : en:Chapter 22
  462. 01:17:49.581                             : en:Chapter 23
  463. 01:21:03.108                             : en:Chapter 24
  464. 01:25:05.350                             : en:Chapter 25
  465. 01:29:45.129                             : en:Chapter 26
  466. 01:31:27.565                             : en:Chapter 27
  467. 01:37:25.256                             : en:Chapter 28
  468. 01:41:04.975                             : en:Chapter 29
  469. 01:44:20.337                             : en:Chapter 30
  470. 01:47:00.497                             : en:Chapter 31
  471. 01:50:18.528                             : en:Chapter 32
  472. 01:52:56.686                             : en:Chapter 33
  473. 01:56:36.906                             : en:Chapter 34
  474. 01:58:49.372                             : en:Chapter 35
  475. 02:02:27.423                             : en:Chapter 36
  476. 02:05:41.784                             : en:Chapter 37
  477. 02:08:46.802                             : en:Chapter 38
复制代码

复制代码

黑客帝国/廿二世纪杀人收集 The.Matrix.1999.REMASTERED.RERIP.1080p.BluRay.x264.DTS-HD.MA.7.1-SWTYBLZ 18.14GB-2.png 黑客帝国/廿二世纪杀人收集 The.Matrix.1999.REMASTERED.RERIP.1080p.BluRay.x264.DTS-HD.MA.7.1-SWTYBLZ 18.14GB-3.png 黑客帝国/廿二世纪杀人收集 The.Matrix.1999.REMASTERED.RERIP.1080p.BluRay.x264.DTS-HD.MA.7.1-SWTYBLZ 18.14GB-4.png






回复

使用道具 举报

懒得打字嘛,点击右侧快捷回复 【右侧内容,后台自定义】
您需要登录后才可以回帖 登录 | 立即加入

本版积分规则

Archiver|小黑屋| 蓝光电影网 |网站地图

Copyright © 2021 Comsenz Inc. Powered by 蓝光电影网

蓝光电影网

本站内容由用户自主分享和转载自互联网,转载目的在于传递更多信息,并不代表本网赞同其观点和对其真实性负责。

如有侵权、违反国家法律政策行为,请联系我们,我们会第一时间及时清除和处理!

举报反馈邮箱:[email protected]

快速回复 返回顶部 返回列表