找回密码

蓝光电影网

查看: 1336|回复: 5

[科幻] 生化人/曼博格 Manborg.2011.1080p.BluRay.x264-BRMP 4.37GB

[复制链接]
蓝光币
623
发表于 2018-9-12 11:44:19 | 显示全部楼层 |阅读模式

生化人/曼博格 Manborg.2011.1080p.BluRay.x264-BRMP 4.37GB-1.jpg
◎译  名 生化人/曼博格
◎片  名 Manborg
◎年  代 2011
◎产  地 美国
◎类  别 行动/科幻/可骇
◎语  言 英语
◎上映日期 2011-09-22
◎豆瓣评分 5.2/10 from 90 users
◎豆瓣链接 https://movie.douban.com/subject/20427597/
◎片  长 60分钟
◎导  演 史蒂文·科斯坦斯基 Steven Kostanski
◎主  演 Matthew Kennedy
      Adam Brooks
      Meredith Sweeney
      Conor Sweeney

◎简  介

  简介:
  Manborg大要讲了个什么故事?科学家无意中翻开了时空地道,各路天堂机甲兽起头围攻地球,配角是个废材兵哥,被天堂将军打残后再醒来,发现自己被科学家改装成了MANBORG,天堂军团也已经统治了地球。因而,MANBORG协同飞刀暴走靓妹、轰隆舞双枪文盲哥、翻译腔NO.1功夫王,起头大闹天堂纳粹城!
  八十年月风殊效土到掉渣的科幻大片!红白机横版通关情怀大致敬!脑残革新机枪人、飞刀暴走靓妹、轰隆舞双枪文盲哥、翻译腔NO.1功夫王,四小我物任你选,大战各路天堂机甲生化怪……假到暴的神演技!粘土血花四溅!最初的BIO COP假预告片也是各类奇异!

  1. Video
  2. ID                                       : 1
  3. Format                                   : AVC
  4. Format/Info                              : Advanced Video Codec
  5. Format profile                           : [url=/cdn-cgi/l/email-protection][email protected][/url]
  6. Format settings                          : CABAC / 4 Ref Frames
  7. Format settings, CABAC                   : Yes
  8. Format settings, ReFrames                : 4 frames
  9. Codec ID                                 : V_MPEG4/ISO/AVC
  10. Duration                                 : 1 h 2 min
  11. Bit rate                                 : 8 566 kb/s
  12. Width                                    : 1 920 pixels
  13. Height                                   : 1 080 pixels
  14. Display aspect ratio                     : 16:9
  15. Frame rate mode                          : Constant
  16. Frame rate                               : 23.976 (24000/1001) FPS
  17. Color space                              : YUV
  18. Chroma subsampling                       : 4:2:0
  19. Bit depth                                : 8 bits
  20. Scan type                                : Progressive
  21. Bits/(Pixel*Frame)                       : 0.172
  22. Stream size                              : 3.63 GiB (83%)
  23. Writing library                          : x264 core 130 r2273 b3065e6
  24. Encoding settings                        : cabac=1 / ref=4 / deblock=1:0:0 / analyse=0x3:0x133 / me=umh / subme=7 / psy=1 / psy_rd=1.00:0.00 / mixed_ref=1 / me_range=16 / chroma_me=1 / trellis=1 / 8x8dct=1 / cqm=0 / deadzone=21,11 / fast_pskip=0 / chroma_qp_offset=-2 / threads=12 / lookahead_threads=2 / sliced_threads=0 / nr=0 / decimate=1 / interlaced=0 / bluray_compat=0 / constrained_intra=0 / bframes=3 / b_pyramid=2 / b_adapt=1 / b_bias=0 / direct=1 / weightb=1 / open_gop=0 / weightp=2 / keyint=240 / keyint_min=23 / scenecut=40 / intra_refresh=0 / rc_lookahead=40 / rc=2pass / mbtree=1 / bitrate=8566 / ratetol=1.0 / qcomp=0.60 / qpmin=0 / qpmax=69 / qpstep=4 / cplxblur=20.0 / qblur=0.5 / ip_ratio=1.40 / aq=1:1.00
  25. Language                                 : English
  26. Default                                  : Yes
  27. Forced                                   : No

  28. Audio
  29. ID                                       : 2
  30. Format                                   : DTS
  31. Format/Info                              : Digital Theater Systems
  32. Codec ID                                 : A_DTS
  33. Duration                                 : 1 h 2 min
  34. Bit rate mode                            : Constant
  35. Bit rate                                 : 1 509 kb/s
  36. Channel(s)                               : 6 channels
  37. Channel positions                        : Front: L C R, Side: L R, LFE
  38. Sampling rate                            : 48.0 kHz
  39. Frame rate                               : 93.750 FPS (512 SPF)
  40. Bit depth                                : 24 bits
  41. Compression mode                         : Lossy
  42. Stream size                              : 671 MiB (15%)
  43. Language                                 : English
  44. Default                                  : Yes
  45. Forced                                   : No
复制代码

复制代码

生化人/曼博格 Manborg.2011.1080p.BluRay.x264-BRMP 4.37GB-2.png 生化人/曼博格 Manborg.2011.1080p.BluRay.x264-BRMP 4.37GB-3.png 生化人/曼博格 Manborg.2011.1080p.BluRay.x264-BRMP 4.37GB-4.png






回复

使用道具 举报

蓝光币
327
发表于 2018-9-13 16:38:30 | 显示全部楼层
好资源感谢分享。
回复 支持 反对

使用道具 举报

懒得打字嘛,点击右侧快捷回复 【右侧内容,后台自定义】
您需要登录后才可以回帖 登录 | 立即加入

本版积分规则

Archiver|小黑屋| 蓝光电影网 |网站地图

Copyright © 2021 Comsenz Inc. Powered by 蓝光电影网

蓝光电影网

本站内容由用户自主分享和转载自互联网,转载目的在于传递更多信息,并不代表本网赞同其观点和对其真实性负责。

如有侵权、违反国家法律政策行为,请联系我们,我们会第一时间及时清除和处理!

举报反馈邮箱:[email protected]

快速回复 返回顶部 返回列表