找回密码

蓝光电影网

查看: 1311|回复: 9

[10bit.SDR] 罗宾汉/侠盗·骄雄 Robin.Hood.2010.UNRATED.2160p.BluRay.x265.10bit.SDR.DTS-X.7.1-SWTYBLZ 57.33GB

[复制链接]
蓝光币
623
发表于 2018-9-14 15:11:52 | 显示全部楼层 |阅读模式
罗宾汉/侠盗·骄雄 Robin.Hood.2010.UNRATED.2160p.BluRay.x265.10bit.SDR.DTS-X.7.1-SWTYBLZ 57.33GB-1.jpg
◎译  名 罗宾汉/侠盗·骄雄(港)
◎片  名 Robin Hood
◎年  代 2010
◎产  地 美国/英国
◎类  别 行动/冒险/剧情
◎语  言 英语
◎上映日期 2010-05-12(英国)/2010-06-11(中国大陆)
◎豆瓣评分 6.7/10 from 21,401 users
◎豆瓣链接 https://movie.douban.com/subject/2062677/
◎片  长 140 分钟/131 分钟(戛纳电影节)/156 分钟(导演剪辑版)
◎导  演 雷德利·斯科特 Ridley Scott
◎主  演 罗素·克劳 Russell Crowe
      凯特·布兰切特 Cate Blanchett
      威廉·赫特 William Hurt
      马克·斯特朗 Mark Strong
      马克斯·冯·西多 Max von Sydow
      奥斯卡·伊撒克 Oscar Isaac
      马修·麦克费登 Matthew Macfadyen
      丹尼·赫斯顿 Danny Huston
      艾琳·阿特金斯 Eileen Atkins
      马克·阿蒂 Mark Addy
      蕾雅·赛杜 Léa Seydoux

◎简  介

  13世纪,大英帝国在狮心王理查一世(丹尼·赫斯顿 Danny Huston 饰)的率领下与来犯的法国军队展开酣战。力大无穷、勇猛善战的罗宾·朗斯特莱德(罗素·克劳 Russell Crowe 饰)是这群英国战士中的一员,作为射手的他曾随理查加入过十字军东征,在对法的战争中也表示英勇。可是狮心王遭受诡计刺杀,罗宾接管与国王一同遇刺的罗伯特?洛克斯利的遗言,摇身酿成罗伯特回到英国。在王宫骗吃骗喝事后,罗宾如约来到罗伯特的故乡诺丁汉,他不但获得罗伯特父亲的准予继续假扮其儿子,还意外得知了自己的身世之谜。与此同时,法国野心勃勃,觊觎着英国的国土,而英国国内又乱相丛生,危机四伏。
  在暗流涌动的大时代下,罗宾似乎了然了自己的保存使命,未几后他拿起长弓,投入深林,开启了耐久不衰的罗宾汉的传闻……

◎获奖情况

  第12届美国青少年挑选奖  (2010)
  最好行动冒险电影(提名)
  最好行动冒险电影男演员(提名) 罗素·克劳
  最好行动冒险电影女演员(提名) 凯特·布兰切特

  1. Video
  2. ID                                       : 1
  3. Format                                   : HEVC
  4. Format/Info                              : High Efficiency Video Coding
  5. Format profile                           : Main [url=/cdn-cgi/l/email-protection][email protected][/url]@High
  6. Codec ID                                 : V_MPEGH/ISO/HEVC
  7. Duration                                 : 2 h 35 min
  8. Bit rate                                 : 44.4 Mb/s
  9. Width                                    : 3 840 pixels
  10. Height                                   : 1 600 pixels
  11. Display aspect ratio                     : 2.40:1
  12. Frame rate mode                          : Constant
  13. Frame rate                               : 23.976 (24000/1001) FPS
  14. Color space                              : YUV
  15. Chroma subsampling                       : 4:2:0
  16. Bit depth                                : 10 bits
  17. Bits/(Pixel*Frame)                       : 0.302
  18. Stream size                              : 48.3 GiB (85%)
  19. Title                                    : Robin.Hood.2010.UNRATED.2160p.BluRay.x265.10bit.SDR.DTS-X.7.1-SWTYBLZ
  20. Writing library                          : x265 2.8+54-79c76e42cb28:[Windows][GCC 7.3.1][64 bit] 10bit
  21. Encoding settings                        : cpuid=1111039 / frame-threads=16 / numa-pools=24,24,24,24 / wpp / no-pmode / no-pme / no-psnr / no-ssim / log-level=2 / input-csp=1 / input-res=3840x1600 / interlace=0 / total-frames=0 / level-idc=51 / high-tier=1 / uhd-bd=0 / ref=3 / no-allow-non-conformance / repeat-headers / annexb / aud / hrd / info / hash=0 / no-temporal-layers / no-open-gop / min-keyint=1 / keyint=24 / gop-lookahead=0 / bframes=4 / b-adapt=2 / b-pyramid / bframe-bias=0 / rc-lookahead=25 / lookahead-slices=4 / scenecut=40 / radl=0 / no-intra-refresh / ctu=64 / min-cu-size=8 / no-rect / no-amp / max-tu-size=32 / tu-inter-depth=1 / tu-intra-depth=1 / limit-tu=0 / rdoq-level=0 / dynamic-rd=0.00 / no-ssim-rd / signhide / no-tskip / nr-intra=0 / nr-inter=0 / no-constrained-intra / strong-intra-smoothing / max-merge=2 / limit-refs=3 / no-limit-modes / me=1 / subme=2 / merange=57 / temporal-mvp / weightp / no-weightb / no-analyze-src-pics / deblock=0:0 / no-sao / no-sao-non-deblock / rd=3 / no-early-skip / rskip / no-fast-intra / no-tskip-fast / no-cu-lossless / no-b-intra / no-splitrd-skip / rdpenalty=0 / psy-rd=2.00 / psy-rdoq=0.00 / no-rd-refine / no-lossless / cbqpoffs=0 / crqpoffs=0 / rc=crf / crf=20.0 / qcomp=0.60 / qpstep=4 / stats-write=0 / stats-read=0 / vbv-maxrate=160000 / vbv-bufsize=160000 / vbv-init=0.9 / crf-max=0.0 / crf-min=0.0 / ipratio=1.40 / pbratio=1.30 / aq-mode=1 / aq-strength=1.00 / cutree / zone-count=0 / no-strict-cbr / qg-size=32 / no-rc-grain / qpmax=69 / qpmin=0 / no-const-vbv / sar=1 / overscan=0 / videoformat=5 / range=0 / colorprim=2 / transfer=2 / colormatrix=2 / chromaloc=0 / display-window=0 / max-cll=0,0 / min-luma=0 / max-luma=1023 / log2-max-poc-lsb=8 / vui-timing-info / vui-hrd-info / slices=1 / opt-qp-pps / opt-ref-list-length-pps / no-multi-pass-opt-rps / scenecut-bias=0.05 / no-opt-cu-delta-qp / no-aq-motion / no-hdr / no-hdr-opt / no-dhdr10-opt / no-idr-recovery-sei / analysis-reuse-level=5 / scale-factor=0 / refine-intra=0 / refine-inter=0 / refine-mv=0 / no-limit-sao / ctu-info=0 / no-lowpass-dct / refine-mv-type=0 / copy-pic=1 / max-ausize-factor=1.0 / no-dynamic-refine / no-single-sei
  22. Language                                 : English
  23. Default                                  : Yes
  24. Forced                                   : No

  25. Audio #1
  26. ID                                       : 2
  27. Format                                   : DTS
  28. Format/Info                              : Digital Theater Systems
  29. Format profile                           : X / MA / Core
  30. Codec ID                                 : A_DTS
  31. Duration                                 : 2 h 35 min
  32. Bit rate mode                            : Variable / Variable / Constant
  33. Bit rate                                 : 7 421 kb/s / 7 421 kb/s / 1 509 kb/s
  34. Channel(s)                               : Object Based / 8 channels / 6 channels
  35. Channel positions                        : Object Based / Front: L C R, Side: L R, Back: L R, LFE / Front: L C R, Side: L R, LFE
  36. Sampling rate                            :  / 48.0 kHz / 48.0 kHz
  37. Frame rate                               : 93.750 FPS (512 SPF)
  38. Bit depth                                :  / 24 bits / 24 bits
  39. Compression mode                         :  / Lossless / Lossy
  40. Stream size                              : 8.08 GiB (14%)
  41. Title                                    : Robin.Hood.2010.UNRATED.2160p.BluRay.x265.10bit.SDR.DTS-X.7.1-SWTYBLZ
  42. Language                                 : English
  43. Default                                  : Yes
  44. Forced                                   : No

  45. Audio #2
  46. ID                                       : 3
  47. Format                                   : AC-3
  48. Format/Info                              : Audio Coding 3
  49. Codec ID                                 : A_AC3
  50. Duration                                 : 2 h 35 min
  51. Bit rate mode                            : Constant
  52. Bit rate                                 : 640 kb/s
  53. Channel(s)                               : 6 channels
  54. Channel positions                        : Front: L C R, Side: L R, LFE
  55. Sampling rate                            : 48.0 kHz
  56. Frame rate                               : 31.250 FPS (1536 SPF)
  57. Bit depth                                : 16 bits
  58. Compression mode                         : Lossy
  59. Stream size                              : 713 MiB (1%)
  60. Title                                    : Robin.Hood.2010.UNRATED.2160p.BluRay.x265.10bit.SDR.DTS-X.7.1-SWTYBLZ
  61. Language                                 : English
  62. Service kind                             : Complete Main
  63. Default                                  : No
  64. Forced                                   : No

  65. Text #1
  66. ID                                       : 4
  67. Format                                   : UTF-8
  68. Codec ID                                 : S_TEXT/UTF8
  69. Codec ID/Info                            : UTF-8 Plain Text
  70. Duration                                 : 2 h 27 min
  71. Bit rate                                 : 39 b/s
  72. Count of elements                        : 1414
  73. Stream size                              : 42.2 KiB (0%)
  74. Title                                    : English-SRT
  75. Language                                 : English
  76. Default                                  : Yes
  77. Forced                                   : No

  78. Text #2
  79. ID                                       : 5
  80. Format                                   : PGS
  81. Muxing mode                              : zlib
  82. Codec ID                                 : S_HDMV/PGS
  83. Codec ID/Info                            : Picture based subtitle format used on BDs/HD-DVDs
  84. Duration                                 : 2 h 34 min
  85. Bit rate                                 : 27.8 kb/s
  86. Count of elements                        : 3209
  87. Stream size                              : 30.6 MiB (0%)
  88. Title                                    : English-PGS
  89. Language                                 : English
  90. Default                                  : No
  91. Forced                                   : No

  92. Text #3
  93. ID                                       : 6
  94. Format                                   : PGS
  95. Muxing mode                              : zlib
  96. Codec ID                                 : S_HDMV/PGS
  97. Codec ID/Info                            : Picture based subtitle format used on BDs/HD-DVDs
  98. Duration                                 : 2 h 34 min
  99. Bit rate                                 : 26.0 kb/s
  100. Count of elements                        : 2798
  101. Stream size                              : 28.8 MiB (0%)
  102. Title                                    : French-PGS
  103. Language                                 : French
  104. Default                                  : No
  105. Forced                                   : No

  106. Text #4
  107. ID                                       : 7
  108. Format                                   : PGS
  109. Muxing mode                              : zlib
  110. Codec ID                                 : S_HDMV/PGS
  111. Codec ID/Info                            : Picture based subtitle format used on BDs/HD-DVDs
  112. Duration                                 : 2 h 34 min
  113. Bit rate                                 : 25.0 kb/s
  114. Count of elements                        : 2931
  115. Stream size                              : 27.7 MiB (0%)
  116. Title                                    : Spanish-PGS
  117. Language                                 : Spanish
  118. Default                                  : No
  119. Forced                                   : No

  120. Text #5
  121. ID                                       : 8
  122. Format                                   : PGS
  123. Muxing mode                              : zlib
  124. Codec ID                                 : S_HDMV/PGS
  125. Codec ID/Info                            : Picture based subtitle format used on BDs/HD-DVDs
  126. Duration                                 : 2 h 34 min
  127. Bit rate                                 : 19.5 kb/s
  128. Count of elements                        : 2909
  129. Stream size                              : 21.6 MiB (0%)
  130. Title                                    : Japanese-PGS
  131. Language                                 : Japanese
  132. Default                                  : No
  133. Forced                                   : No

  134. Text #6
  135. ID                                       : 9
  136. Format                                   : PGS
  137. Muxing mode                              : zlib
  138. Codec ID                                 : S_HDMV/PGS
  139. Codec ID/Info                            : Picture based subtitle format used on BDs/HD-DVDs
  140. Duration                                 : 2 h 34 min
  141. Bit rate                                 : 25.9 kb/s
  142. Count of elements                        : 2944
  143. Stream size                              : 28.7 MiB (0%)
  144. Title                                    : Portuguese-PGS
  145. Language                                 : Portuguese
  146. Default                                  : No
  147. Forced                                   : No

  148. Menu
  149. 00:00:00.000                             : :Chapter 1
  150. 00:12:05.975                             : :Chapter 2
  151. 00:18:27.439                             : :Chapter 3
  152. 00:25:11.551                             : :Chapter 4
  153. 00:33:31.425                             : :Chapter 5
  154. 00:38:36.981                             : :Chapter 6
  155. 00:48:42.586                             : :Chapter 7
  156. 00:57:11.886                             : :Chapter 8
  157. 01:04:14.308                             : :Chapter 9
  158. 01:10:41.612                             : :Chapter 10
  159. 01:23:24.624                             : :Chapter 11
  160. 01:32:17.114                             : :Chapter 12
  161. 01:40:30.148                             : :Chapter 13
  162. 01:49:15.882                             : :Chapter 14
  163. 01:56:06.417                             : :Chapter 15
  164. 02:02:29.091                             : :Chapter 16
  165. 02:09:20.669                             : :Chapter 17
  166. 02:18:21.417                             : :Chapter 18
  167. 02:22:48.684                             : :Chapter 19
  168. 02:27:08.611                             : :Chapter 20
复制代码

复制代码

罗宾汉/侠盗·骄雄 Robin.Hood.2010.UNRATED.2160p.BluRay.x265.10bit.SDR.DTS-X.7.1-SWTYBLZ 57.33GB-2.png 罗宾汉/侠盗·骄雄 Robin.Hood.2010.UNRATED.2160p.BluRay.x265.10bit.SDR.DTS-X.7.1-SWTYBLZ 57.33GB-3.png 罗宾汉/侠盗·骄雄 Robin.Hood.2010.UNRATED.2160p.BluRay.x265.10bit.SDR.DTS-X.7.1-SWTYBLZ 57.33GB-4.png 罗宾汉/侠盗·骄雄 Robin.Hood.2010.UNRATED.2160p.BluRay.x265.10bit.SDR.DTS-X.7.1-SWTYBLZ 57.33GB-5.png 罗宾汉/侠盗·骄雄 Robin.Hood.2010.UNRATED.2160p.BluRay.x265.10bit.SDR.DTS-X.7.1-SWTYBLZ 57.33GB-6.png 罗宾汉/侠盗·骄雄 Robin.Hood.2010.UNRATED.2160p.BluRay.x265.10bit.SDR.DTS-X.7.1-SWTYBLZ 57.33GB-7.png 罗宾汉/侠盗·骄雄 Robin.Hood.2010.UNRATED.2160p.BluRay.x265.10bit.SDR.DTS-X.7.1-SWTYBLZ 57.33GB-8.png






回复

使用道具 举报

蓝光币
325
发表于 2018-9-21 07:53:29 | 显示全部楼层
强烈支持楼主ing……
回复 支持 反对

使用道具 举报

懒得打字嘛,点击右侧快捷回复 【右侧内容,后台自定义】
您需要登录后才可以回帖 登录 | 立即加入

本版积分规则

Archiver|小黑屋| 蓝光电影网 |网站地图

Copyright © 2021 Comsenz Inc. Powered by 蓝光电影网

蓝光电影网

本站内容由用户自主分享和转载自互联网,转载目的在于传递更多信息,并不代表本网赞同其观点和对其真实性负责。

如有侵权、违反国家法律政策行为,请联系我们,我们会第一时间及时清除和处理!

举报反馈邮箱:[email protected]l.com

快速回复 返回顶部 返回列表