找回密码

蓝光电影网

查看: 888|回复: 1

[惊悚] 血腥姐妹会 The.Row.2018.720p.BluRay.x264-ROVERS 4.38GB

[复制链接]
蓝光币
623
发表于 2018-9-14 15:23:31 | 显示全部楼层 |阅读模式

血腥姐妹会 The.Row.2018.720p.BluRay.x264-ROVERS 4.38GB-1.jpg
◎译  名 血腥姐妹会
◎片  名 The Row
◎年  代 2018
◎产  地 加拿大/美国
◎类  别 惊悚
◎语  言 英语
◎上映日期 2018-07-27(美国)
◎豆瓣评分 3.4/10 from 131 users
◎豆瓣链接 https://movie.douban.com/subject/30249693/
◎片  长 85分钟
◎导  演 马蒂·贝克曼 Matty Beckerman
◎主  演 科林·伊格斯菲德 Colin Egglesfield
      迪伦·斯派比利 Dylan Sprayberry
      米娅·罗斯·弗兰普顿 Mia Rose Frampton
      兰迪·库卓 Randy Couture
      莱克西·阿特金斯 Lexi Atkins
      Lala Kent
      Sarah McDaniel
      雷卡·雷内 Reka Rene
      梅莉尔·罗斯 Malea Rose
      泰勒·乔恩·奥尔森 Tyler Jon Olson
      凯瑟琳·勒 Kathryn Le
      塔尼娅 Tanya Mityushina
      谢伊·巴克纳 Shea Buckner
      Jennifer Titus
      Natali Yura

◎简  介

  聪明与美貌并存的Riley进入大学后加入了一小我人眼羡的姐妹会,成员都有着维密天使般的脸蛋和身段,可姐妹会中的成员却相继死去,被连环杀人犯取掉身上了一部分做成玩偶,一个想要睡遍姐妹会中一切人的帅哥Carter成为重要怀疑人,软件Row的奥秘也随之浮出水面,Riley的妈妈竟曾也是姐妹会的一员 她的死背后隐含着什么奥秘

  1. Video
  2. ID                                       : 1
  3. Format                                   : AVC
  4. Format/Info                              : Advanced Video Codec
  5. Format profile                           : [url=/cdn-cgi/l/email-protection][email protected][/url]
  6. Format settings                          : CABAC / 5 Ref Frames
  7. Format settings, CABAC                   : Yes
  8. Format settings, RefFrames               : 5 frames
  9. Codec ID                                 : V_MPEG4/ISO/AVC
  10. Duration                                 : 1 h 25 min
  11. Bit rate                                 : 5 791 kb/s
  12. Width                                    : 1 280 pixels
  13. Height                                   : 688 pixels
  14. Display aspect ratio                     : 1.85:1
  15. Frame rate mode                          : Constant
  16. Frame rate                               : 23.976 FPS
  17. Color space                              : YUV
  18. Chroma subsampling                       : 4:2:0
  19. Bit depth                                : 8 bits
  20. Scan type                                : Progressive
  21. Bits/(Pixel*Frame)                       : 0.274
  22. Stream size                              : 3.47 GiB (79%)
  23. Writing library                          : x264 core 157 r2932 303c484
  24. Encoding settings                        : cabac=1 / ref=5 / deblock=1:0:0 / analyse=0x3:0x133 / me=umh / subme=7 / psy=1 / psy_rd=1.00:0.00 / mixed_ref=1 / me_range=16 / chroma_me=1 / trellis=1 / 8x8dct=1 / cqm=0 / deadzone=21,11 / fast_pskip=0 / chroma_qp_offset=-2 / threads=21 / lookahead_threads=3 / sliced_threads=0 / nr=0 / decimate=1 / interlaced=0 / bluray_compat=0 / constrained_intra=0 / bframes=3 / b_pyramid=2 / b_adapt=1 / b_bias=0 / direct=1 / weightb=1 / open_gop=0 / weightp=2 / keyint=250 / keyint_min=23 / scenecut=40 / intra_refresh=0 / rc_lookahead=40 / rc=2pass / mbtree=1 / bitrate=5791 / ratetol=1.0 / qcomp=0.60 / qpmin=0 / qpmax=69 / qpstep=4 / cplxblur=20.0 / qblur=0.5 / ip_ratio=1.40 / aq=1:1.00
  25. Language                                 : English
  26. Default                                  : Yes
  27. Forced                                   : No

  28. Audio
  29. ID                                       : 2
  30. Format                                   : DTS
  31. Format/Info                              : Digital Theater Systems
  32. Mode                                     : 16
  33. Format settings, Endianness              : Big
  34. Codec ID                                 : A_DTS
  35. Duration                                 : 1 h 25 min
  36. Bit rate mode                            : Constant
  37. Bit rate                                 : 1 509 kb/s
  38. Channel(s)                               : 6 channels
  39. Channel positions                        : Front: L C R, Side: L R, LFE
  40. Sampling rate                            : 48.0 kHz
  41. Frame rate                               : 93.750 FPS (512 SPF)
  42. Bit depth                                : 24 bits
  43. Compression mode                         : Lossy
  44. Stream size                              : 925 MiB (21%)
  45. Language                                 : English
  46. Default                                  : Yes
  47. Forced                                   : No

  48. Menu
  49. 00:00:00.000                             : en:00:00:00.000
  50. 00:04:48.079                             : en:00:04:48.079
  51. 00:09:50.757                             : en:00:09:50.757
  52. 00:14:04.135                             : en:00:14:04.135
  53. 00:20:08.666                             : en:00:20:08.666
  54. 00:24:02.566                             : en:00:24:02.566
  55. 00:30:14.688                             : en:00:30:14.688
  56. 00:36:18.885                             : en:00:36:18.885
  57. 00:40:36.934                             : en:00:40:36.934
  58. 00:45:32.647                             : en:00:45:32.647
  59. 00:51:37.094                             : en:00:51:37.094
  60. 00:54:29.850                             : en:00:54:29.850
  61. 01:00:56.653                             : en:01:00:56.653
  62. 01:05:10.240                             : en:01:05:10.240
  63. 01:10:29.225                             : en:01:10:29.225
  64. 01:17:20.845                             : en:01:17:20.845
复制代码

复制代码

血腥姐妹会 The.Row.2018.720p.BluRay.x264-ROVERS 4.38GB-2.jpg






回复

使用道具 举报

懒得打字嘛,点击右侧快捷回复 【右侧内容,后台自定义】
您需要登录后才可以回帖 登录 | 立即加入

本版积分规则

Archiver|小黑屋| 蓝光电影网 |网站地图

Copyright © 2021 Comsenz Inc. Powered by 蓝光电影网

蓝光电影网

本站内容由用户自主分享和转载自互联网,转载目的在于传递更多信息,并不代表本网赞同其观点和对其真实性负责。

如有侵权、违反国家法律政策行为,请联系我们,我们会第一时间及时清除和处理!

举报反馈邮箱:[email protected]

快速回复 返回顶部 返回列表