找回密码

蓝光电影网

查看: 940|回复: 2

[科幻] 占领/占用 Occupation.2018.1080p.BluRay.x264-ROVERS 8.75GB

[复制链接]
蓝光币
623
发表于 2018-9-14 15:33:57 | 显示全部楼层 |阅读模式

占据/占用 Occupation.2018.1080p.BluRay.x264-ROVERS 8.75GB-1.jpg
◎译  名 占据/占用
◎片  名 Occupation
◎年  代 2018
◎产  地 澳大利亚
◎类  别 行动/科幻
◎语  言 英语
◎上映日期 2018-07-12(澳大利亚)
◎豆瓣评分 3.4/10 from 129 users
◎豆瓣链接 https://movie.douban.com/subject/27197502/
◎片  长 119分钟
◎导  演 Luke Sparke
◎主  演 丹尼尔·尤因 Daniel Ewing
      特穆拉·莫里森 Temuera Morrison
      斯蒂芬妮·雅格布森 Stephanie Jacobsen
      Rhiannon Fish
      Zachary Garred
      Izzy Stevens
      Charles Terrier
      查尔斯·梅祖 Charles Mesure
      费利克斯·威廉森 Felix Williamson
      杰奎琳·麦根斯 Jacqueline McKenzie
      Aaron Jeffery
      布鲁斯·斯宾斯 Bruce Spence
      特里斯坦·苟 Trystan Go
      罗伊·比令 Roy Billing
      Ben Chisholm

◎简  介

  A small group of town residents have to band together after a devastating ground invasion. As they struggle to survive, they realize they must stay one step ahead of their attackers, and work together for a chance to strike back.

  1. Video
  2. ID                                       : 1
  3. Format                                   : AVC
  4. Format/Info                              : Advanced Video Codec
  5. Format profile                           : [url=/cdn-cgi/l/email-protection][email protected][/url]
  6. Format settings                          : CABAC / 5 Ref Frames
  7. Format settings, CABAC                   : Yes
  8. Format settings, RefFrames               : 5 frames
  9. Codec ID                                 : V_MPEG4/ISO/AVC
  10. Duration                                 : 1 h 59 min
  11. Bit rate                                 : 8 926 kb/s
  12. Width                                    : 1 920 pixels
  13. Height                                   : 808 pixels
  14. Display aspect ratio                     : 2.40:1
  15. Frame rate mode                          : Constant
  16. Frame rate                               : 23.976 (24000/1001) FPS
  17. Color space                              : YUV
  18. Chroma subsampling                       : 4:2:0
  19. Bit depth                                : 8 bits
  20. Scan type                                : Progressive
  21. Bits/(Pixel*Frame)                       : 0.240
  22. Stream size                              : 7.48 GiB (86%)
  23. Writing library                          : x264 core 157 r2932 303c484
  24. Encoding settings                        : cabac=1 / ref=5 / deblock=1:-3:-3 / analyse=0x3:0x133 / me=umh / subme=8 / psy=1 / psy_rd=1.00:0.00 / mixed_ref=1 / me_range=16 / chroma_me=1 / trellis=1 / 8x8dct=1 / cqm=0 / deadzone=21,11 / fast_pskip=0 / chroma_qp_offset=-2 / threads=25 / lookahead_threads=4 / sliced_threads=0 / nr=0 / decimate=1 / interlaced=0 / bluray_compat=0 / constrained_intra=0 / bframes=3 / b_pyramid=2 / b_adapt=1 / b_bias=0 / direct=3 / weightb=1 / open_gop=0 / weightp=2 / keyint=250 / keyint_min=23 / scenecut=40 / intra_refresh=0 / rc_lookahead=50 / rc=2pass / mbtree=1 / bitrate=8926 / ratetol=1.0 / qcomp=0.60 / qpmin=0 / qpmax=69 / qpstep=4 / cplxblur=20.0 / qblur=0.5 / vbv_maxrate=62500 / vbv_bufsize=78125 / nal_hrd=none / filler=0 / ip_ratio=1.40 / aq=1:1.00
  25. Default                                  : Yes
  26. Forced                                   : No

  27. Audio
  28. ID                                       : 2
  29. Format                                   : DTS
  30. Format/Info                              : Digital Theater Systems
  31. Mode                                     : 16
  32. Format settings, Endianness              : Big
  33. Codec ID                                 : A_DTS
  34. Duration                                 : 1 h 59 min
  35. Bit rate mode                            : Constant
  36. Bit rate                                 : 1 509 kb/s
  37. Channel(s)                               : 6 channels
  38. Channel positions                        : Front: L C R, Side: L R, LFE
  39. Sampling rate                            : 48.0 kHz
  40. Frame rate                               : 93.750 FPS (512 SPF)
  41. Bit depth                                : 24 bits
  42. Compression mode                         : Lossy
  43. Stream size                              : 1.26 GiB (14%)
  44. Language                                 : English
  45. Default                                  : Yes
  46. Forced                                   : No

  47. Menu
  48. 00:00:00.000                             : en:00:00:00.000
  49. 00:08:00.271                             : en:00:08:00.271
  50. 00:14:20.318                             : en:00:14:20.318
  51. 00:23:28.198                             : en:00:23:28.198
  52. 00:30:27.284                             : en:00:30:27.284
  53. 00:37:09.811                             : en:00:37:09.811
  54. 00:45:28.768                             : en:00:45:28.768
  55. 00:51:19.535                             : en:00:51:19.535
  56. 00:58:58.452                             : en:00:58:58.452
  57. 01:06:03.501                             : en:01:06:03.501
  58. 01:18:07.057                             : en:01:18:07.057
  59. 01:23:34.676                             : en:01:23:34.676
  60. 01:31:15.929                             : en:01:31:15.929
  61. 01:37:51.991                             : en:01:37:51.991
  62. 01:47:34.573                             : en:01:47:34.573
  63. 01:52:09.514                             : en:01:52:09.514
复制代码

复制代码

占据/占用 Occupation.2018.1080p.BluRay.x264-ROVERS 8.75GB-2.jpg






回复

使用道具 举报

懒得打字嘛,点击右侧快捷回复 【右侧内容,后台自定义】
您需要登录后才可以回帖 登录 | 立即加入

本版积分规则

Archiver|小黑屋| 蓝光电影网 |网站地图

Copyright © 2021 Comsenz Inc. Powered by 蓝光电影网

蓝光电影网

本站内容由用户自主分享和转载自互联网,转载目的在于传递更多信息,并不代表本网赞同其观点和对其真实性负责。

如有侵权、违反国家法律政策行为,请联系我们,我们会第一时间及时清除和处理!

举报反馈邮箱:[email protected]

快速回复 返回顶部 返回列表