找回密码

蓝光电影网

查看: 710|回复: 0

[动作] 僵尸本拉登 Osombie.2012.1080p.BluRay.x264-BRMP 7.95GB

[复制链接]
蓝光币
623
发表于 2018-9-14 15:37:27 | 显示全部楼层 |阅读模式

僵尸本拉登 Osombie.2012.1080p.BluRay.x264-BRMP 7.95GB-1.jpg
◎译  名 僵尸本拉登
◎片  名 Osombie
◎年  代 2012
◎产  地 美国
◎类  别 行动/惊悚/可骇
◎语  言 英语
◎豆瓣评分 3.3/10 from 363 users
◎豆瓣链接 https://movie.douban.com/subject/10484596/
◎导  演 约翰·莱德  库尔特·黑尔
◎主  演 克里约翰塞维尔
      莫罗,贾森韦德
      丹妮尔Chuchran
      威廉·鲁比奥
      马修·里斯

◎简  介

  美国一家制片公司决议在电影中将已被美军击毙的本·拉丹“新生”。这位“基地”构造前带领人将率领一支由僵尸可骇份子组成的军团,对北约军队策动战争。  据这部“奇思妙想”电影的制片品德里芬称,该电影剧本早在本·拉丹客岁5月被击毙前就已经写就。而既然本·拉丹现在已经灭亡,这部电影无疑将是以赢得更多的噱头。  影片中将有大量的沙漠战役场景,同时还会包括浪漫恋爱的元素。影片主打口号是,“本·拉丹将再死一次。”  格里芬称,这部电影在犹他州拍摄,全部拍摄进程布满兴趣。他说,“我们利用了很多好莱坞的殊效技术,影片中有大量的行动排场。”他还暗示,到今朝为止,该影片的受期待情况相当悲观。

  1. Video
  2. ID                                       : 1
  3. Format                                   : AVC
  4. Format/Info                              : Advanced Video Codec
  5. Format profile                           : [url=/cdn-cgi/l/email-protection][email protected][/url]
  6. Format settings                          : CABAC / 4 Ref Frames
  7. Format settings, CABAC                   : Yes
  8. Format settings, ReFrames                : 4 frames
  9. Codec ID                                 : V_MPEG4/ISO/AVC
  10. Duration                                 : 1 h 30 min
  11. Bit rate                                 : 11.1 Mb/s
  12. Width                                    : 1 920 pixels
  13. Height                                   : 1 080 pixels
  14. Display aspect ratio                     : 16:9
  15. Frame rate mode                          : Constant
  16. Frame rate                               : 23.976 (24000/1001) FPS
  17. Color space                              : YUV
  18. Chroma subsampling                       : 4:2:0
  19. Bit depth                                : 8 bits
  20. Scan type                                : Progressive
  21. Bits/(Pixel*Frame)                       : 0.222
  22. Stream size                              : 6.84 GiB (86%)
  23. Writing library                          : x264 core 125 r2208 d9d2288
  24. Encoding settings                        : cabac=1 / ref=4 / deblock=1:0:0 / analyse=0x3:0x133 / me=umh / subme=7 / psy=1 / psy_rd=1.00:0.00 / mixed_ref=1 / me_range=16 / chroma_me=1 / trellis=1 / 8x8dct=1 / cqm=0 / deadzone=21,11 / fast_pskip=0 / chroma_qp_offset=-2 / threads=12 / lookahead_threads=2 / sliced_threads=0 / nr=0 / decimate=1 / interlaced=0 / bluray_compat=0 / constrained_intra=0 / bframes=3 / b_pyramid=2 / b_adapt=1 / b_bias=0 / direct=1 / weightb=1 / open_gop=0 / weightp=2 / keyint=240 / keyint_min=23 / scenecut=40 / intra_refresh=0 / rc_lookahead=40 / rc=2pass / mbtree=1 / bitrate=11060 / ratetol=1.0 / qcomp=0.60 / qpmin=0 / qpmax=69 / qpstep=4 / cplxblur=20.0 / qblur=0.5 / ip_ratio=1.40 / aq=1:1.00
  25. Language                                 : English
  26. Default                                  : Yes
  27. Forced                                   : No

  28. Audio
  29. ID                                       : 2
  30. Format                                   : DTS
  31. Format/Info                              : Digital Theater Systems
  32. Codec ID                                 : A_DTS
  33. Duration                                 : 1 h 30 min
  34. Bit rate mode                            : Constant
  35. Bit rate                                 : 1 509 kb/s
  36. Channel(s)                               : 6 channels
  37. Channel positions                        : Front: L C R, Side: L R, LFE
  38. Sampling rate                            : 48.0 kHz
  39. Frame rate                               : 93.750 FPS (512 SPF)
  40. Bit depth                                : 24 bits
  41. Compression mode                         : Lossy
  42. Stream size                              : 977 MiB (12%)
  43. Language                                 : English
  44. Default                                  : Yes
  45. Forced                                   : No
复制代码

复制代码

僵尸本拉登 Osombie.2012.1080p.BluRay.x264-BRMP 7.95GB-2.png 僵尸本拉登 Osombie.2012.1080p.BluRay.x264-BRMP 7.95GB-3.png 僵尸本拉登 Osombie.2012.1080p.BluRay.x264-BRMP 7.95GB-4.png






回复

使用道具 举报

懒得打字嘛,点击右侧快捷回复 【右侧内容,后台自定义】
您需要登录后才可以回帖 登录 | 立即加入

本版积分规则

Archiver|小黑屋| 蓝光电影网 |网站地图

Copyright © 2021 Comsenz Inc. Powered by 蓝光电影网

蓝光电影网

本站内容由用户自主分享和转载自互联网,转载目的在于传递更多信息,并不代表本网赞同其观点和对其真实性负责。

如有侵权、违反国家法律政策行为,请联系我们,我们会第一时间及时清除和处理!

举报反馈邮箱:[email protected]

快速回复 返回顶部 返回列表