找回密码

蓝光电影网

查看: 735|回复: 1

[剧情] 折翅蝴蝶/捉蝴蝶 Butterfly.Caught.2017.1080p.BluRay.x264.DTS-HD.MA.5.1-MT 14.65GB

[复制链接]
蓝光币
623
发表于 2018-9-14 15:44:45 | 显示全部楼层 |阅读模式

折翅蝴蝶/捉蝴蝶 Butterfly.Caught.2017.1080p.BluRay.x264.DTS-HD.MA.5.1-MT 14.65GB-1.jpg
◎译  名 折翅蝴蝶/捉蝴蝶
◎片  名 Butterfly Caught
◎年  代 2017
◎产  地 美国
◎类  别 剧情
◎语  言 英语
◎上映日期 2017-10-06(美国)
◎豆瓣评分 /10 from 0 users
◎豆瓣链接 https://movie.douban.com/subject/26634835/
◎片  长 107分钟
◎导  演 Manny Rodriguez Jr.
◎主  演 Alexandra Sgambati
      洁思·雅各布斯 Jess Jacobs
      阿比盖尔·克莱因 Abigail Klein
      乔纳森·斯卡奇 Johnathon Schaech
      托尼·普拉纳 Tony Plana
      Grant Liffmann
      Adam Ambruso
      Jake Olson
      钱德勒·马西 Chandler Massey
      Wolfgang Bodison
      多米尼克·博加特 Dominic Bogart
      威尔·华莱士 Will Wallace

◎简  介

  三位有理想的美丽女演员踏上了进入合作剧烈的洛杉矶演艺圈的征程,却发现通往明星之路的价格极为高昂。

  1. Video
  2. ID                                       : 1
  3. Format                                   : AVC
  4. Format/Info                              : Advanced Video Codec
  5. Format profile                           : [url=/cdn-cgi/l/email-protection][email protected][/url]
  6. Format settings                          : CABAC / 5 Ref Frames
  7. Format settings, CABAC                   : Yes
  8. Format settings, ReFrames                : 5 frames
  9. Codec ID                                 : V_MPEG4/ISO/AVC
  10. Duration                                 : 1 h 47 min
  11. Bit rate                                 : 16.1 Mb/s
  12. Width                                    : 1 920 pixels
  13. Height                                   : 804 pixels
  14. Display aspect ratio                     : 2.40:1
  15. Frame rate mode                          : Constant
  16. Frame rate                               : 23.976 (24000/1001) FPS
  17. Color space                              : YUV
  18. Chroma subsampling                       : 4:2:0
  19. Bit depth                                : 8 bits
  20. Scan type                                : Progressive
  21. Bits/(Pixel*Frame)                       : 0.435
  22. Stream size                              : 12.1 GiB (82%)
  23. Writing library                          : x264 core 155 r2901 7d0ff22
  24. Encoding settings                        : cabac=1 / ref=5 / deblock=1:-3:-3 / analyse=0x3:0x133 / me=umh / subme=11 / psy=1 / psy_rd=1.05:0.00 / mixed_ref=1 / me_range=48 / chroma_me=1 / trellis=2 / 8x8dct=1 / cqm=0 / deadzone=21,11 / fast_pskip=0 / chroma_qp_offset=-2 / threads=12 / lookahead_threads=2 / sliced_threads=0 / nr=0 / decimate=0 / interlaced=0 / bluray_compat=0 / constrained_intra=0 / bframes=9 / b_pyramid=2 / b_adapt=2 / b_bias=0 / direct=3 / weightb=1 / open_gop=0 / weightp=2 / keyint=250 / keyint_min=24 / scenecut=40 / intra_refresh=0 / rc_lookahead=250 / rc=crf / mbtree=0 / crf=16.8 / qcomp=0.60 / qpmin=0 / qpmax=69 / qpstep=4 / vbv_maxrate=62500 / vbv_bufsize=78125 / crf_max=0.0 / nal_hrd=none / filler=0 / ip_ratio=1.30 / pb_ratio=1.20 / aq=3:0.80
  25. Language                                 : English
  26. Default                                  : Yes
  27. Forced                                   : No

  28. Audio
  29. ID                                       : 2
  30. Format                                   : DTS
  31. Format/Info                              : Digital Theater Systems
  32. Format profile                           : MA / Core
  33. Codec ID                                 : A_DTS
  34. Duration                                 : 1 h 47 min
  35. Bit rate mode                            : Variable / Constant
  36. Bit rate                                 : 3 407 kb/s / 1 509 kb/s
  37. Channel(s)                               : 6 channels
  38. Channel positions                        : Front: L C R, Side: L R, LFE
  39. Sampling rate                            : 48.0 kHz
  40. Frame rate                               : 93.750 FPS (512 SPF)
  41. Bit depth                                : 24 bits
  42. Compression mode                         : Lossless / Lossy
  43. Stream size                              : 2.55 GiB (17%)
  44. Language                                 : English
  45. Default                                  : Yes
  46. Forced                                   : No

  47. Text
  48. ID                                       : 3
  49. Format                                   : PGS
  50. Muxing mode                              : zlib
  51. Codec ID                                 : S_HDMV/PGS
  52. Codec ID/Info                            : Picture based subtitle format used on BDs/HD-DVDs
  53. Duration                                 : 1 h 43 min
  54. Bit rate                                 : 74.2 kb/s
  55. Count of elements                        : 3104
  56. Stream size                              : 55.0 MiB (0%)
  57. Language                                 : English
  58. Default                                  : No
  59. Forced                                   : No

  60. Menu
  61. 00:00:00.000                             : en:Chapter 1
  62. 00:09:16.847                             : en:Chapter 2
  63. 00:20:26.850                             : en:Chapter 3
  64. 00:29:51.080                             : en:Chapter 4
  65. 00:41:22.021                             : en:Chapter 5
  66. 00:50:02.124                             : en:Chapter 6
  67. 01:01:03.368                             : en:Chapter 7
  68. 01:09:17.653                             : en:Chapter 8
  69. 01:19:58.418                             : en:Chapter 9
  70. 01:30:01.104                             : en:Chapter 10
  71. 01:41:15.944                             : en:Chapter 11
  72. 01:47:16.471                             : en:Chapter 12
复制代码

复制代码

折翅蝴蝶/捉蝴蝶 Butterfly.Caught.2017.1080p.BluRay.x264.DTS-HD.MA.5.1-MT 14.65GB-3.png 折翅蝴蝶/捉蝴蝶 Butterfly.Caught.2017.1080p.BluRay.x264.DTS-HD.MA.5.1-MT 14.65GB-4.png






回复

使用道具 举报

懒得打字嘛,点击右侧快捷回复 【右侧内容,后台自定义】
您需要登录后才可以回帖 登录 | 立即加入

本版积分规则

Archiver|小黑屋| 蓝光电影网 |网站地图

Copyright © 2021 Comsenz Inc. Powered by 蓝光电影网

蓝光电影网

本站内容由用户自主分享和转载自互联网,转载目的在于传递更多信息,并不代表本网赞同其观点和对其真实性负责。

如有侵权、违反国家法律政策行为,请联系我们,我们会第一时间及时清除和处理!

举报反馈邮箱:[email protected]

快速回复 返回顶部 返回列表