找回密码

蓝光电影网

查看: 8317|回复: 6

[剧情] 三陪保姆/风骚小保姆 The.Babysitters.2007.LIMITED.1080p.BluRay.x264-THUGLiNE 8.03GB

[复制链接]
蓝光币
623
发表于 2018-9-14 15:46:55 | 显示全部楼层 |阅读模式

三陪保姆/风骚小保姆 The.Babysitters.2007.LIMITED.1080p.BluRay.x264-THUGLiNE 8.03GB-1.jpg
◎译  名 三陪保姆/风骚小保姆/兼职保姆
◎片  名 The Babysitters
◎年  代 2007
◎产  地 美国
◎类  别 剧情
◎语  言 英语
◎上映日期 2007-09-11
◎豆瓣评分 5.5/10 from 2,373 users
◎豆瓣链接 https://movie.douban.com/subject/2301145/
◎片  长 88 分钟/Canada: 90 分钟(Toronto International Film Festival)
◎导  演 David Ross
◎主  演 Lauren Birkell
      保罗·鲍格才 Paul Borghese
      Chira Cassel
      Anthony Cirillo
      斯宾塞·崔特·克拉克 Spencer Treat Clark
      安迪·科米乌 Andy Comeau
      安·唐德 Ann Dowd
      Jason Dubin
      Harold Fort
      阿丽克谢·吉尔莫 Alexie Gilmore
      Halley Wegryn Gross
      Michael Knowles
      路易莎·克劳瑟 Louisa Krause
      亚当·勒费弗 Adam LeFevre
      约翰·雷吉扎莫 John Leguizamo

◎简  介

  和很多美国的年轻人一样,雪莉(凯瑟琳·沃特斯顿 Katherine Waterston 饰)得靠自己的劳动赚取学费。一次工作中,标致的雪莉居然被店主贝尔德兰(约翰·雷吉扎莫 John Leguizamo 饰)吻了。为了抚慰和抵偿雪莉,贝尔德兰给了雪莉更多的报答,现在后当中,精明的雪莉看出了商机。
  为了获得更多的好处,雪莉和起头了和店主之间的不道德的交往,不但如此,她还鼓舞了亦有此意的同学和伙伴“入行”,而且靠牵线搭桥收取佣金。而正当雪莉的“奇迹”经营的风生水起之时,麻烦也不期而至。雪莉暗恋着的男生发现了雪莉的奥秘并为之不齿,同时,雪莉手下的“雇员”们也渐渐的离开了这位店主的掌控起头私下接活,站在道德和好处的穿插口,雪莉会做出怎样的挑选呢?

  1. Video
  2. ID                                       : 1
  3. Format                                   : AVC
  4. Format/Info                              : Advanced Video Codec
  5. Format profile                           : [url=/cdn-cgi/l/email-protection][email protected][/url]
  6. Format settings                          : CABAC / 4 Ref Frames
  7. Format settings, CABAC                   : Yes
  8. Format settings, RefFrames               : 4 frames
  9. Codec ID                                 : V_MPEG4/ISO/AVC
  10. Duration                                 : 1 h 28 min
  11. Bit rate                                 : 11.4 Mb/s
  12. Width                                    : 1 920 pixels
  13. Height                                   : 1 080 pixels
  14. Display aspect ratio                     : 16:9
  15. Frame rate mode                          : Constant
  16. Frame rate                               : 23.976 FPS
  17. Color space                              : YUV
  18. Chroma subsampling                       : 4:2:0
  19. Bit depth                                : 8 bits
  20. Scan type                                : Progressive
  21. Bits/(Pixel*Frame)                       : 0.229
  22. Stream size                              : 6.85 GiB (86%)
  23. Writing library                          : x264 core 83 r1400 20fa784
  24. Encoding settings                        : cabac=1 / ref=4 / deblock=1:0:0 / analyse=0x3:0x133 / me=umh / subme=7 / psy=1 / psy_rd=1.0:0.0 / mixed_ref=1 / me_range=16 / chroma_me=1 / trellis=1 / 8x8dct=1 / cqm=0 / deadzone=21,11 / fast_pskip=0 / chroma_qp_offset=-2 / threads=12 / sliced_threads=0 / nr=0 / decimate=1 / mbaff=0 / constrained_intra=0 / bframes=3 / b_pyramid=0 / b_adapt=1 / b_bias=0 / direct=1 / wpredb=1 / wpredp=2 / keyint=250 / keyint_min=25 / scenecut=40 / intra_refresh=0 / rc_lookahead=40 / rc=2pass / mbtree=1 / bitrate=11367 / ratetol=1.0 / qcomp=0.60 / qpmin=10 / qpmax=51 / qpstep=4 / cplxblur=20.0 / qblur=0.5 / ip_ratio=1.40 / aq=1:1.00
  25. Language                                 : English
  26. Default                                  : Yes
  27. Forced                                   : No

  28. Audio
  29. ID                                       : 2
  30. Format                                   : DTS
  31. Format/Info                              : Digital Theater Systems
  32. Mode                                     : 16
  33. Format settings, Endianness              : Big
  34. Codec ID                                 : A_DTS
  35. Duration                                 : 1 h 28 min
  36. Bit rate mode                            : Constant
  37. Bit rate                                 : 1 509 kb/s
  38. Channel(s)                               : 6 channels
  39. Channel positions                        : Front: L C R, Side: L R, LFE
  40. Sampling rate                            : 48.0 kHz
  41. Frame rate                               : 93.750 FPS (512 SPF)
  42. Bit depth                                : 24 bits
  43. Compression mode                         : Lossy
  44. Stream size                              : 954 MiB (12%)
  45. Language                                 : English
  46. Default                                  : Yes
  47. Forced                                   : No
复制代码

复制代码

三陪保姆/风骚小保姆 The.Babysitters.2007.LIMITED.1080p.BluRay.x264-THUGLiNE 8.03GB-2.jpg





回复

使用道具 举报

懒得打字嘛,点击右侧快捷回复 【右侧内容,后台自定义】
您需要登录后才可以回帖 登录 | 立即加入

本版积分规则

Archiver|小黑屋| 蓝光电影网 |网站地图

Copyright © 2021 Comsenz Inc. Powered by 蓝光电影网

蓝光电影网

本站内容由用户自主分享和转载自互联网,转载目的在于传递更多信息,并不代表本网赞同其观点和对其真实性负责。

如有侵权、违反国家法律政策行为,请联系我们,我们会第一时间及时清除和处理!

举报反馈邮箱:[email protected]

快速回复 返回顶部 返回列表