找回密码

蓝光电影网

查看: 2644|回复: 8

侏罗纪世界2/侏罗纪世界:殒落国度 Jurassic.World.Fallen.Kingdom.2018.1080p.3D.BluRay.Half-SBS.x264.DTS-X.7.1-FGT 25.51GB

[复制链接]
蓝光币
623
发表于 2018-9-14 15:57:09 | 显示全部楼层 |阅读模式

侏罗纪天下2/侏罗纪天下:殒落国家 Jurassic.World.Fallen.Kingdom.2018.1080p.3D.BluRay.Half-SBS.x264.DTS-X.7.1-FGT 25.51GB-1.jpg
◎译  名 侏罗纪天下2/侏罗纪天下:殒落国家(台)/侏罗纪天下:丢失国家(港)/侏罗纪天下2:失落王国/侏罗纪天下2:出错王国/侏罗纪公园5
◎片  名 Jurassic World: Fallen Kingdom
◎年  代 2018
◎产  地 美国/西班牙
◎类  别 行动/科幻/冒险
◎语  言 英语
◎上映日期 2018-06-15(中国大陆)/2018-06-22(美国)
◎豆瓣评分 6.7/10 from 191,866 users
◎豆瓣链接 https://movie.douban.com/subject/26416062/
◎片  长 128分钟
◎导  演 胡安·安东尼奥·巴亚纳 Juan Antonio Bayona
◎主  演 克里斯·帕拉特 Chris Pratt
      布莱丝·达拉斯·霍华德 Bryce Dallas Howard
      贾斯蒂斯·史姑娘 Justice Smith
      伊莎贝拉·瑟蒙 1394999
      拉菲·斯波 Rafe Spall
      托比·琼斯 Toby Jones
      泰德·拉文 Ted Levine
      詹姆斯·克伦威尔 James Cromwell
      黄荣亮 B.D. Wong
      丹妮艾拉·皮内达 Daniella Pineda
      杰拉丁·卓别林 Geraldine Chaplin
      杰夫·高布伦 Jeff Goldblum
      卡米尔·雷米泽斯基 Kamil Lemieszewski
      丹尼尔·斯蒂森 Daniel Stisen
      皮特·杰森 Peter Jason
      迈克尔·帕帕约翰 Michael Papajohn
      罗伯特·埃姆斯 Robert Emms
      罗南·萨莫尔斯 Ronan Summers
      麦克斯·贝克 Max Baker
      丹尼尔·厄根 Daniel Eghan
      戴维·奥拉瓦莱·阿印德 David Olawale Ayinde

◎简  介

  自侏罗纪天下的骚乱以来,品种繁多的恐龙在努布拉岛度过了三年自在自在的时光。但是该岛火山活动频仍,随时有喷发的危险。努力于恐龙庇护的克莱尔·戴宁(布莱丝·达拉斯·霍华德 Bryce Dallas Howard 饰)遭到班杰明?洛克伍德的约请。班杰明及其部属伊莱·米尔斯(拉菲·斯波 Rafe Spall 饰)希望她和相关技术职员前往努布拉岛拯救那边的恐龙,并将它们安置在新的栖息地。遭到传染的克莱尔想法找来欧文(克里斯·帕拉特 Chris Pratt 饰)一同前往,欧文则希望救出他亲手驯养的迅猛龙小蓝。当他们踏足这座隔断之岛时,却发现工作没那末简单。
  火山捋臂张拳,随时爆发,而紊乱当中丑陋的诡计悄悄酝酿……

  1. Video
  2. ID                                       : 1
  3. Format                                   : AVC
  4. Format/Info                              : Advanced Video Codec
  5. Format profile                           : [url=/cdn-cgi/l/email-protection][email protected][/url]
  6. Format settings                          : CABAC / 3 Ref Frames
  7. Format settings, CABAC                   : Yes
  8. Format settings, ReFrames                : 3 frames
  9. Codec ID                                 : V_MPEG4/ISO/AVC
  10. Duration                                 : 2 h 8 min
  11. Bit rate                                 : 15.5 Mb/s
  12. Width                                    : 1 920 pixels
  13. Height                                   : 1 080 pixels
  14. Display aspect ratio                     : 16:9
  15. Frame rate mode                          : Constant
  16. Frame rate                               : 23.976 (24000/1001) FPS
  17. Color space                              : YUV
  18. Chroma subsampling                       : 4:2:0
  19. Bit depth                                : 8 bits
  20. Scan type                                : Progressive
  21. Bits/(Pixel*Frame)                       : 0.312
  22. Stream size                              : 13.8 GiB (54%)
  23. Title                                    : Jurassic.World.Fallen.Kingdom.2018.1080p.3D.BluRay.Half-SBS.x264.DTS-X.7.1-FGT
  24. Writing library                          : x264 core 148
  25. Encoding settings                        : cabac=1 / ref=3 / deblock=1:-1:-1 / analyse=0x3:0 / me=hex / subme=5 / psy=1 / psy_rd=1.00:0.00 / mixed_ref=0 / me_range=16 / chroma_me=1 / trellis=1 / 8x8dct=1 / cqm=0 / deadzone=21,11 / fast_pskip=0 / chroma_qp_offset=0 / threads=24 / lookahead_threads=6 / sliced_threads=0 / nr=0 / decimate=1 / interlaced=0 / bluray_compat=0 / constrained_intra=0 / bframes=2 / b_pyramid=0 / b_adapt=1 / b_bias=0 / direct=1 / weightb=0 / open_gop=0 / weightp=0 / keyint=24 / keyint_min=2 / scenecut=40 / intra_refresh=0 / rc=abr / mbtree=0 / bitrate=15500 / ratetol=1.0 / qcomp=0.60 / qpmin=0 / qpmax=69 / qpstep=4 / ip_ratio=1.40 / pb_ratio=1.30 / aq=1:1.00
  26. Default                                  : Yes
  27. Forced                                   : No
  28. Color range                              : Limited
  29. Color primaries                          : BT.709
  30. Transfer characteristics                 : BT.709
  31. Matrix coefficients                      : BT.709

  32. Audio #1
  33. ID                                       : 2
  34. Format                                   : DTS
  35. Format/Info                              : Digital Theater Systems
  36. Format profile                           : X / MA / Core
  37. Codec ID                                 : A_DTS
  38. Duration                                 : 2 h 8 min
  39. Bit rate mode                            : Variable / Variable / Constant
  40. Bit rate                                 : 4 231 kb/s / 4 231 kb/s / 1 509 kb/s
  41. Channel(s)                               : Object Based / 8 channels / 6 channels
  42. Channel positions                        : Object Based / Front: L C R, Side: L R, Back: L R, LFE / Front: L C R, Side: L R, LFE
  43. Sampling rate                            :  / 48.0 kHz / 48.0 kHz
  44. Frame rate                               : 93.750 FPS (512 SPF)
  45. Bit depth                                :  / 24 bits / 24 bits
  46. Compression mode                         :  / Lossless / Lossy
  47. Stream size                              : 3.79 GiB (15%)
  48. Title                                    : Jurassic.World.Fallen.Kingdom.2018.1080p.3D.BluRay.Half-SBS.x264.DTS-X.7.1-FGT
  49. Language                                 : English
  50. Default                                  : Yes
  51. Forced                                   : No

  52. Audio #2
  53. ID                                       : 3
  54. Format                                   : DTS
  55. Format/Info                              : Digital Theater Systems
  56. Codec ID                                 : A_DTS
  57. Duration                                 : 2 h 8 min
  58. Bit rate mode                            : Constant
  59. Bit rate                                 : 1 509 kb/s
  60. Channel(s)                               : 6 channels
  61. Channel positions                        : Front: L C R, Side: L R, LFE
  62. Sampling rate                            : 48.0 kHz
  63. Frame rate                               : 93.750 FPS (512 SPF)
  64. Bit depth                                : 24 bits
  65. Compression mode                         : Lossy
  66. Stream size                              : 1.35 GiB (5%)
  67. Title                                    : Jurassic.World.Fallen.Kingdom.2018.1080p.3D.BluRay.Half-SBS.x264.DTS-X.7.1-FGT
  68. Language                                 : English
  69. Default                                  : No
  70. Forced                                   : No

  71. Audio #3
  72. ID                                       : 4
  73. Format                                   : DTS
  74. Format/Info                              : Digital Theater Systems
  75. Format profile                           : HRA / Core
  76. Codec ID                                 : A_DTS
  77. Duration                                 : 2 h 8 min
  78. Bit rate mode                            : Constant
  79. Bit rate                                 : 2 046 kb/s / 1 509 kb/s
  80. Channel(s)                               : 8 channels / 6 channels
  81. Channel positions                        : Front: L C R, Side: L R, Back: L R, LFE / Front: L C R, Side: L R, LFE
  82. Sampling rate                            : 48.0 kHz
  83. Frame rate                               : 93.750 FPS (512 SPF)
  84. Bit depth                                : 24 bits
  85. Compression mode                         : Lossy
  86. Stream size                              : 1.83 GiB (7%)
  87. Title                                    : Jurassic.World.Fallen.Kingdom.2018.1080p.3D.BluRay.Half-SBS.x264.DTS-X.7.1-FGT
  88. Language                                 : Spanish
  89. Default                                  : No
  90. Forced                                   : No

  91. Audio #4
  92. ID                                       : 5
  93. Format                                   : DTS
  94. Format/Info                              : Digital Theater Systems
  95. Codec ID                                 : A_DTS
  96. Duration                                 : 2 h 8 min
  97. Bit rate mode                            : Constant
  98. Bit rate                                 : 1 509 kb/s
  99. Channel(s)                               : 6 channels
  100. Channel positions                        : Front: L C R, Side: L R, LFE
  101. Sampling rate                            : 48.0 kHz
  102. Frame rate                               : 93.750 FPS (512 SPF)
  103. Bit depth                                : 24 bits
  104. Compression mode                         : Lossy
  105. Stream size                              : 1.35 GiB (5%)
  106. Title                                    : Jurassic.World.Fallen.Kingdom.2018.1080p.3D.BluRay.Half-SBS.x264.DTS-X.7.1-FGT
  107. Language                                 : Spanish
  108. Default                                  : No
  109. Forced                                   : No

  110. Audio #5
  111. ID                                       : 6
  112. Format                                   : DTS
  113. Format/Info                              : Digital Theater Systems
  114. Format profile                           : HRA / Core
  115. Codec ID                                 : A_DTS
  116. Duration                                 : 2 h 8 min
  117. Bit rate mode                            : Constant
  118. Bit rate                                 : 2 046 kb/s / 1 509 kb/s
  119. Channel(s)                               : 8 channels / 6 channels
  120. Channel positions                        : Front: L C R, Side: L R, Back: L R, LFE / Front: L C R, Side: L R, LFE
  121. Sampling rate                            : 48.0 kHz
  122. Frame rate                               : 93.750 FPS (512 SPF)
  123. Bit depth                                : 24 bits
  124. Compression mode                         : Lossy
  125. Stream size                              : 1.83 GiB (7%)
  126. Title                                    : Jurassic.World.Fallen.Kingdom.2018.1080p.3D.BluRay.Half-SBS.x264.DTS-X.7.1-FGT
  127. Language                                 : French
  128. Default                                  : No
  129. Forced                                   : No

  130. Audio #6
  131. ID                                       : 7
  132. Format                                   : DTS
  133. Format/Info                              : Digital Theater Systems
  134. Codec ID                                 : A_DTS
  135. Duration                                 : 2 h 8 min
  136. Bit rate mode                            : Constant
  137. Bit rate                                 : 1 509 kb/s
  138. Channel(s)                               : 6 channels
  139. Channel positions                        : Front: L C R, Side: L R, LFE
  140. Sampling rate                            : 48.0 kHz
  141. Frame rate                               : 93.750 FPS (512 SPF)
  142. Bit depth                                : 24 bits
  143. Compression mode                         : Lossy
  144. Stream size                              : 1.35 GiB (5%)
  145. Title                                    : Jurassic.World.Fallen.Kingdom.2018.1080p.3D.BluRay.Half-SBS.x264.DTS-X.7.1-FGT
  146. Language                                 : French
  147. Default                                  : No
  148. Forced                                   : No

  149. Audio #7
  150. ID                                       : 8
  151. Format                                   : AC-3
  152. Format/Info                              : Audio Coding 3
  153. Codec ID                                 : A_AC3
  154. Duration                                 : 2 h 8 min
  155. Bit rate mode                            : Constant
  156. Bit rate                                 : 192 kb/s
  157. Channel(s)                               : 2 channels
  158. Channel positions                        : Front: L R
  159. Sampling rate                            : 48.0 kHz
  160. Frame rate                               : 31.250 FPS (1536 SPF)
  161. Bit depth                                : 16 bits
  162. Compression mode                         : Lossy
  163. Stream size                              : 176 MiB (1%)
  164. Title                                    : Jurassic.World.Fallen.Kingdom.2018.1080p.3D.BluRay.Half-SBS.x264.DTS-X.7.1-FGT
  165. Language                                 : English
  166. Service kind                             : Complete Main
  167. Default                                  : No
  168. Forced                                   : No

  169. Text #1
  170. ID                                       : 9
  171. Format                                   : PGS
  172. Muxing mode                              : zlib
  173. Codec ID                                 : S_HDMV/PGS
  174. Codec ID/Info                            : Picture based subtitle format used on BDs/HD-DVDs
  175. Duration                                 : 2 h 7 min
  176. Bit rate                                 : 46.8 kb/s
  177. Count of elements                        : 3542
  178. Stream size                              : 42.6 MiB (0%)
  179. Title                                    : English-PGS
  180. Language                                 : English
  181. Default                                  : Yes
  182. Forced                                   : No

  183. Text #2
  184. ID                                       : 10
  185. Format                                   : PGS
  186. Muxing mode                              : zlib
  187. Codec ID                                 : S_HDMV/PGS
  188. Codec ID/Info                            : Picture based subtitle format used on BDs/HD-DVDs
  189. Duration                                 : 2 h 6 min
  190. Bit rate                                 : 33.6 kb/s
  191. Count of elements                        : 2590
  192. Stream size                              : 30.4 MiB (0%)
  193. Title                                    : Spanish-PGS
  194. Language                                 : Spanish
  195. Default                                  : No
  196. Forced                                   : No

  197. Text #3
  198. ID                                       : 11
  199. Format                                   : PGS
  200. Muxing mode                              : zlib
  201. Codec ID                                 : S_HDMV/PGS
  202. Codec ID/Info                            : Picture based subtitle format used on BDs/HD-DVDs
  203. Duration                                 : 2 h 6 min
  204. Bit rate                                 : 31.6 kb/s
  205. Count of elements                        : 2592
  206. Stream size                              : 28.6 MiB (0%)
  207. Title                                    : French-PGS
  208. Language                                 : French
  209. Default                                  : No
  210. Forced                                   : No

  211. Text #4
  212. ID                                       : 12
  213. Format                                   : PGS
  214. Muxing mode                              : zlib
  215. Codec ID                                 : S_HDMV/PGS
  216. Codec ID/Info                            : Picture based subtitle format used on BDs/HD-DVDs
  217. Duration                                 : 2 h 6 min
  218. Bit rate                                 : 266 b/s
  219. Count of elements                        : 20
  220. Stream size                              : 247 KiB (0%)
  221. Title                                    : Spanish-FORCED-PGS
  222. Language                                 : Spanish
  223. Default                                  : No
  224. Forced                                   : No

  225. Text #5
  226. ID                                       : 13
  227. Format                                   : PGS
  228. Muxing mode                              : zlib
  229. Codec ID                                 : S_HDMV/PGS
  230. Codec ID/Info                            : Picture based subtitle format used on BDs/HD-DVDs
  231. Duration                                 : 2 h 6 min
  232. Bit rate                                 : 910 b/s
  233. Count of elements                        : 60
  234. Stream size                              : 843 KiB (0%)
  235. Title                                    : French-FORCED-PGS
  236. Language                                 : French
  237. Default                                  : No
  238. Forced                                   : No

  239. Menu
  240. 00:00:00.000                             : en:(01)00:00:00:000
  241. 00:07:13.224                             : en:(02)00:07:13:224
  242. 00:12:01.554                             : en:(03)00:12:01:554
  243. 00:17:17.745                             : en:(04)00:17:17:745
  244. 00:21:17.192                             : en:(05)00:21:17:192
  245. 00:28:49.811                             : en:(06)00:28:49:811
  246. 00:35:04.685                             : en:(07)00:35:04:685
  247. 00:40:51.574                             : en:(08)00:40:51:574
  248. 00:46:32.498                             : en:(09)00:46:32:498
  249. 00:52:04.996                             : en:(10)00:52:04:996
  250. 01:00:59.197                             : en:(11)01:00:59:197
  251. 01:06:50.256                             : en:(12)01:06:50:256
  252. 01:11:07.638                             : en:(13)01:11:07:638
  253. 01:17:21.094                             : en:(14)01:17:21:094
  254. 01:26:55.210                             : en:(15)01:26:55:210
  255. 01:33:01.492                             : en:(16)01:33:01:492
  256. 01:42:55.878                             : en:(17)01:42:55:878
  257. 01:50:01.553                             : en:(18)01:50:01:553
  258. 01:54:56.222                             : en:(19)01:54:56:222
  259. 01:58:37.985                             : en:(20)01:58:37:985
  260. 02:08:17.439                             : en:(21)02:08:17:439
复制代码

复制代码

侏罗纪天下2/侏罗纪天下:殒落国家 Jurassic.World.Fallen.Kingdom.2018.1080p.3D.BluRay.Half-SBS.x264.DTS-X.7.1-FGT 25.51GB-2.png 侏罗纪天下2/侏罗纪天下:殒落国家 Jurassic.World.Fallen.Kingdom.2018.1080p.3D.BluRay.Half-SBS.x264.DTS-X.7.1-FGT 25.51GB-3.png 侏罗纪天下2/侏罗纪天下:殒落国家 Jurassic.World.Fallen.Kingdom.2018.1080p.3D.BluRay.Half-SBS.x264.DTS-X.7.1-FGT 25.51GB-4.png






回复

使用道具 举报

蓝光币
17
发表于 2021-7-31 14:46:49 | 显示全部楼层
除了迅雷版权原因,然后其它几个也下不了,就是数据不会动
回复 支持 反对

使用道具 举报

蓝光币
623
 楼主| 发表于 2021-7-31 20:11:55 | 显示全部楼层
1278885850 发表于 2021-7-31 14:46
除了迅雷版权原因,然后其它几个也下不了,就是数据不会动

推荐使用115下载,基本没什么问题
回复 支持 反对

使用道具 举报

蓝光币
17
发表于 2021-8-1 13:29:44 | 显示全部楼层
蓝光 发表于 2021-7-31 20:11
推荐使用115下载,基本没什么问题

115是不是充会员就能下
回复 支持 反对

使用道具 举报

懒得打字嘛,点击右侧快捷回复 【右侧内容,后台自定义】
您需要登录后才可以回帖 登录 | 立即加入

本版积分规则

Archiver|小黑屋| 蓝光电影网 |网站地图

Copyright © 2021 Comsenz Inc. Powered by 蓝光电影网

蓝光电影网

本站内容由用户自主分享和转载自互联网,转载目的在于传递更多信息,并不代表本网赞同其观点和对其真实性负责。

如有侵权、违反国家法律政策行为,请联系我们,我们会第一时间及时清除和处理!

举报反馈邮箱:[email protected]

快速回复 返回顶部 返回列表