找回密码

蓝光电影网

查看: 1372|回复: 0

[剧情] 生命之树/生命树 The.Tree.of.Life.2011.EXTENDED.720p.BluRay.X264-AMIABLE 7.66GB

[复制链接]
蓝光币
623
发表于 2018-9-15 17:35:25 | 显示全部楼层 |阅读模式

生命之树/生命树 The.Tree.of.Life.2011.EXTENDED.720p.BluRay.X264-AMIABLE 7.66GB-1.jpg
◎译  名 生命之树/生命树(港)/永生树(台)/家谱
◎片  名 The Tree of Life
◎年  代 2011
◎产  地 美国
◎类  别 剧情/奇异/家庭
◎语  言 英语
◎上映日期 2011-05-16(戛纳电影节)/2011-05-27(美国部分上映)
◎豆瓣评分 7.0/10 from 31,992 users
◎豆瓣链接 https://movie.douban.com/subject/2336735/
◎片  长 139分钟
◎导  演 泰伦斯·马力克 Terrence Malick
◎主  演 布拉德·皮特 Brad Pitt
      西恩·潘 Sean Penn
      杰西卡·查斯坦 Jessica Chastain
      亨特·麦奎肯 Hunter McCracken
      拉勒米·艾普勒 Laramie Eppler
      泰伊·谢里丹 Tye Sheridan
      费奥纳·肖 Fiona Shaw
      威尔·华莱士 Will Wallace
      Jessica Fuselier
      Nicolas Gonda
      Kelly Koonce
      Bryce Boudoin
      Jimmy Donaldson
      Kameron Vaughn
      科尔·科伯恩 Cole Cockburn

◎简  介

  故事发生在20世纪50年月的美国中西部,经过报告一个典型的美国家庭故事表达了创作者对生命的看法。仆人公是一位叫杰克(亨特·迈奎肯 Hunter McCracken 饰)的11岁男孩,他是家里三兄弟中的一个,父亲(布拉德·皮特 Brad Pitt 饰)严厉而粗鲁,母亲(杰西卡·查斯坦Jessica Chastain 饰)温柔却又碌碌无为,哥哥的死令他的家庭发生了改变。成年后的杰克(西恩·潘 Sean Penn 饰)生活得不顺遂,当他思考自己的人生轨迹时重新面临了自己的记忆,起头站在分歧的角度看待他的怙恃、家庭、童年,最初终究谅解了父亲,而且对生命和生活还有信仰有了更深的了解。
  本片获得第64届戛纳电影节金棕榈大奖,并获得最好影片、最好导演、最好摄影提名。

◎获奖情况

  第84届奥斯卡金像奖  (2012)
  最好影片(提名) Sarah Green / 迪·加德纳 / 比尔·波拉德 / Grant Hill
  最好导演(提名) 泰伦斯·马力克
  最好摄影(提名) 艾曼努尔·卢贝兹基

  第64届戛纳电影节  (2011)
  主比赛单元 金棕榈奖 泰伦斯·马力克

  第56届意大利大卫奖  (2012)
  最好外语片(提名) 泰伦斯·马力克

  第77届纽约影评人协会奖  (2011)
  最好女配角 杰西卡·查斯坦
  最好摄影 艾曼努尔·卢贝兹基

  第17届美国批评家挑选电影奖  (2012)
  最好影片(提名)
  最好摄影 艾曼努尔·卢贝兹基
  最好美术指导(提名) David Crank / 杰克·菲斯克
  最好音效(提名)
  最好视觉结果(提名)

  第12届美国电影学会奖  (2011)
  年度佳片

  第10届华盛顿影评人协会奖  (2011)
  最好摄影 艾曼努尔·卢贝兹基
  最好艺术指导(提名) Jeanette Scott / 杰克·菲斯克

  第32届波士顿影评人协会奖  (2011)
  最好摄影 艾曼努尔·卢贝兹基

  第16届圣地亚哥影评人协会奖  (2011)
  年度劳模 杰西卡·查斯坦
  最好影片(提名)
  最好导演(提名) 泰伦斯·马力克
  最好摄影 艾曼努尔·卢贝兹基
  最好剪辑(提名) 比利·韦伯 / Mark Yoshikawa / Jay Rabinowitz / 丹尼尔·雷森德 / 汉克·科温
  最好配乐(提名) 亚历山大·德斯普拉
  最好艺术指导(提名) 杰克·菲斯克

  第24届芝加哥影评人协会奖  (2011)
  最好影片
  最好导演 泰伦斯·马力克
  最好男配角(提名) 布拉德·皮特
  最好女配角 杰西卡·查斯坦
  最好原创剧本(提名) 泰伦斯·马力克
  最好摄影 艾曼努尔·卢贝兹基
  最具潜力演员(提名) 亨特·麦奎肯

  第45届堪萨斯影评人协会奖  (2012)
  最好导演 泰伦斯·马力克
  最好女配角 杰西卡·查斯坦

  第11届凤凰城影评人协会奖  (2011)
  最好剪辑(提名) 比利·韦伯 / Mark Yoshikawa / Jay Rabinowitz / 丹尼尔·雷森德 / 汉克·科温
  十佳影片

  第20届东南影评人协会奖  (2011)
  最好摄影 艾曼努尔·卢贝兹基
  十大佳片

  第2届豆瓣电影鑫像奖  (2012)
  鑫豆单元 最好影片(外语)(提名)
  鑫豆单元 最好导演(外语) 泰伦斯·马力克

  1. Video
  2. ID                                       : 1
  3. Format                                   : AVC
  4. Format/Info                              : Advanced Video Codec
  5. Format profile                           : [url=/cdn-cgi/l/email-protection][email protected][/url]
  6. Format settings                          : CABAC / 5 Ref Frames
  7. Format settings, CABAC                   : Yes
  8. Format settings, RefFrames               : 5 frames
  9. Codec ID                                 : V_MPEG4/ISO/AVC
  10. Duration                                 : 3 h 8 min
  11. Bit rate                                 : 4 296 kb/s
  12. Width                                    : 1 280 pixels
  13. Height                                   : 688 pixels
  14. Display aspect ratio                     : 1.85:1
  15. Frame rate mode                          : Constant
  16. Frame rate                               : 23.976 (24000/1001) FPS
  17. Color space                              : YUV
  18. Chroma subsampling                       : 4:2:0
  19. Bit depth                                : 8 bits
  20. Scan type                                : Progressive
  21. Bits/(Pixel*Frame)                       : 0.203
  22. Stream size                              : 5.51 GiB (72%)
  23. Writing library                          : x264 core 157 r2932 303c484
  24. Encoding settings                        : cabac=1 / ref=5 / deblock=1:-3:-3 / analyse=0x3:0x113 / me=umh / subme=8 / psy=1 / psy_rd=1.00:0.00 / mixed_ref=1 / me_range=24 / chroma_me=1 / trellis=2 / 8x8dct=1 / cqm=0 / deadzone=21,11 / fast_pskip=1 / chroma_qp_offset=-2 / threads=21 / lookahead_threads=3 / sliced_threads=0 / nr=0 / decimate=1 / interlaced=0 / bluray_compat=0 / constrained_intra=0 / bframes=3 / b_pyramid=2 / b_adapt=2 / b_bias=0 / direct=3 / weightb=1 / open_gop=0 / weightp=2 / keyint=240 / keyint_min=24 / scenecut=40 / intra_refresh=0 / rc_lookahead=50 / rc=2pass / mbtree=1 / bitrate=4296 / ratetol=1.0 / qcomp=0.60 / qpmin=0 / qpmax=69 / qpstep=4 / cplxblur=20.0 / qblur=0.5 / ip_ratio=1.40 / aq=3:0.80
  25. Default                                  : Yes
  26. Forced                                   : No
  27. Statistics Tags Issue                    : no_variable_data 1970-01-01 00:00:00 / no_variable_data 2010-02-22 21:41:29
  28. FromStats_BitRate                        : 4294754
  29. FromStats_Duration                       : 03:08:41.310000000
  30. FromStats_FrameCount                     : 271440
  31. FromStats_StreamSize                     : 6077781340

  32. Audio
  33. ID                                       : 2
  34. Format                                   : DTS
  35. Format/Info                              : Digital Theater Systems
  36. Mode                                     : 16
  37. Format settings, Endianness              : Big
  38. Codec ID                                 : A_DTS
  39. Duration                                 : 3 h 8 min
  40. Bit rate mode                            : Constant
  41. Bit rate                                 : 1 509 kb/s
  42. Channel(s)                               : 6 channels
  43. Channel positions                        : Front: L C R, Side: L R, LFE
  44. Sampling rate                            : 48.0 kHz
  45. Frame rate                               : 93.750 FPS (512 SPF)
  46. Bit depth                                : 24 bits
  47. Compression mode                         : Lossy
  48. Stream size                              : 1.99 GiB (26%)
  49. Language                                 : English
  50. Default                                  : Yes
  51. Forced                                   : No
  52. Statistics Tags Issue                    : no_variable_data 1970-01-01 00:00:00 / no_variable_data 2010-02-22 21:41:29
  53. FromStats_BitRate                        : 1509000
  54. FromStats_Duration                       : 03:08:41.312000000
  55. FromStats_FrameCount                     : 1061373
  56. FromStats_StreamSize                     : 2135482476

  57. Text #1
  58. ID                                       : 3
  59. Format                                   : UTF-8
  60. Codec ID                                 : S_TEXT/UTF8
  61. Codec ID/Info                            : UTF-8 Plain Text
  62. Language                                 : English
  63. Default                                  : No
  64. Forced                                   : No
  65. Statistics Tags Issue                    : no_variable_data 1970-01-01 00:00:00 / no_variable_data 2010-02-22 21:41:29
  66. FromStats_BitRate                        : 19
  67. FromStats_Duration                       : 02:58:57.591000000
  68. FromStats_FrameCount                     : 902
  69. FromStats_StreamSize                     : 26478

  70. Text #2
  71. ID                                       : 4
  72. Format                                   : UTF-8
  73. Codec ID                                 : S_TEXT/UTF8
  74. Codec ID/Info                            : UTF-8 Plain Text
  75. Title                                    : SDH
  76. Language                                 : English
  77. Default                                  : No
  78. Forced                                   : No
  79. Statistics Tags Issue                    : no_variable_data 1970-01-01 00:00:00 / no_variable_data 2010-02-22 21:41:29
  80. FromStats_BitRate                        : 24
  81. FromStats_Duration                       : 03:04:56.210000000
  82. FromStats_FrameCount                     : 1166
  83. FromStats_StreamSize                     : 33958

  84. Menu
  85. 00:00:00.000                             : en:00:00:00.000
  86. 00:04:23.597                             : en:00:04:23.597
  87. 00:11:55.965                             : en:00:11:55.965
  88. 00:24:47.194                             : en:00:24:47.194
  89. 00:42:05.940                             : en:00:42:05.940
  90. 00:53:54.481                             : en:00:53:54.481
  91. 01:00:42.848                             : en:01:00:42.848
  92. 01:04:51.888                             : en:01:04:51.888
  93. 01:20:44.923                             : en:01:20:44.923
  94. 01:29:47.048                             : en:01:29:47.048
  95. 01:34:05.557                             : en:01:34:05.557
  96. 01:49:25.893                             : en:01:49:25.893
  97. 02:00:43.987                             : en:02:00:43.987
  98. 02:06:08.644                             : en:02:06:08.644
  99. 02:13:42.181                             : en:02:13:42.181
  100. 02:20:10.068                             : en:02:20:10.068
  101. 02:22:02.431                             : en:02:22:02.431
  102. 02:31:24.242                             : en:02:31:24.242
  103. 02:40:16.690                             : en:02:40:16.690
  104. 02:45:12.402                             : en:02:45:12.402
  105. 02:49:35.374                             : en:02:49:35.374
  106. 03:01:36.469                             : en:03:01:36.469
复制代码

复制代码

生命之树/生命树 The.Tree.of.Life.2011.EXTENDED.720p.BluRay.X264-AMIABLE 7.66GB-2.jpg






回复

使用道具 举报

懒得打字嘛,点击右侧快捷回复 【右侧内容,后台自定义】
您需要登录后才可以回帖 登录 | 立即加入

本版积分规则

Archiver|小黑屋| 蓝光电影网 |网站地图

Copyright © 2021 Comsenz Inc. Powered by 蓝光电影网

蓝光电影网

本站内容由用户自主分享和转载自互联网,转载目的在于传递更多信息,并不代表本网赞同其观点和对其真实性负责。

如有侵权、违反国家法律政策行为,请联系我们,我们会第一时间及时清除和处理!

举报反馈邮箱:[email protected]

快速回复 返回顶部 返回列表