找回密码

蓝光电影网

查看: 988|回复: 2

[喜剧] 雪耻女孩/复仇女孩 Revenge.Girl.2017.JAPANESE.720p.BluRay.x264-WiKi 4.24GB

[复制链接]
蓝光币
623
发表于 2018-9-15 17:36:30 | 显示全部楼层 |阅读模式

雪恨女孩/复仇女孩 Revenge.Girl.2017.JAPANESE.720p.BluRay.x264-WiKi 4.24GB-1.jpg
◎译  名 雪恨女孩/复仇女孩/雪恨少女
◎片  名 リベンジgirl
◎年  代 2017
◎产  地 日本
◎类  别 笑剧/行动/恋爱
◎语  言 日语
◎上映日期 2017-12-23(日本)
◎豆瓣评分 5.2/10 from 216 users
◎豆瓣链接 https://movie.douban.com/subject/27107141/
◎片  长 111分钟
◎导  演 三木康一郎 K?ichir? Miki
◎主  演 桐谷美玲 Mirei Kiritani
      铃木伸之 Nobuyuki Suzuki
      清原翔 Sh? Kiyohara
      马场富美加 Fumika Baba
      佐津川爱美 Aimi Satsukawa
      大和田伸也 Shin'ya ?wada
      竹内愛紗

◎简  介

  桐谷美玲时隔两年主演电影[雪恨女孩]。影片讲诉才色兼备的Miss东大,以失恋为契机,而发愤成为第一位女性内阁总理大臣。本片由三木康一郎([动物图鉴])执导,12月23日日本上映。

  1. Video
  2. ID                                       : 1
  3. Format                                   : AVC
  4. Format/Info                              : Advanced Video Codec
  5. Format profile                           : [url=/cdn-cgi/l/email-protection][email protected][/url]
  6. Format settings                          : CABAC / 9 Ref Frames
  7. Format settings, CABAC                   : Yes
  8. Format settings, ReFrames                : 9 frames
  9. Codec ID                                 : V_MPEG4/ISO/AVC
  10. Duration                                 : 1 h 50 min
  11. Bit rate                                 : 4 819 kb/s
  12. Width                                    : 1 280 pixels
  13. Height                                   : 692 pixels
  14. Display aspect ratio                     : 1.85:1
  15. Frame rate mode                          : Constant
  16. Frame rate                               : 23.976 (24000/1001) FPS
  17. Color space                              : YUV
  18. Chroma subsampling                       : 4:2:0
  19. Bit depth                                : 8 bits
  20. Scan type                                : Progressive
  21. Bits/(Pixel*Frame)                       : 0.227
  22. Stream size                              : 3.74 GiB (88%)
  23. Title                                    : x264_L4.1 @ 4,819 Kbps
  24. Writing library                          : x264 core 129 r2245+704+36 8e61944 tMod+MixAQ [[url=/cdn-cgi/l/email-protection][email protected][/url]:2:0 X86_64]
  25. Encoding settings                        : cabac=1 / ref=9 / deblock=1:-3:-3 / analyse=0x3:0x133 / me=umh / subme=11 / psy=1 / fade_compensate=0.00 / psy_rd=1.05:0.10 / mixed_ref=1 / me_range=32 / chroma_me=1 / trellis=2 / 8x8dct=1 / cqm=0 / deadzone=21,11 / fast_pskip=0 / chroma_qp_offset=-3 / threads=12 / lookahead_threads=2 / sliced_threads=0 / nr=0 / decimate=1 / interlaced=0 / bluray_compat=0 / constrained_intra=0 / fgo=0 / bframes=10 / b_pyramid=2 / b_adapt=2 / b_bias=0 / direct=3 / weightb=1 / open_gop=0 / weightp=2 / keyint=250 / keyint_min=23 / scenecut=40 / intra_refresh=0 / rc=crf / mbtree=0 / crf=16.0000 / qcomp=0.70 / qpmin=0 / qpmax=69 / qpstep=4 / ip_ratio=1.25 / pb_ratio=1.15 / aq=1 / aq-strength=0.80 / aq-sensitivity=10.00 / aq-ifactor=1.00 / aq-pfactor=1.00 / aq-bfactor=1.00 / aq2=0
  26. Language                                 : Japanese
  27. Default                                  : Yes
  28. Forced                                   : No

  29. Audio
  30. ID                                       : 2
  31. Format                                   : AC-3
  32. Format/Info                              : Audio Coding 3
  33. Codec ID                                 : A_AC3
  34. Duration                                 : 1 h 50 min
  35. Bit rate mode                            : Constant
  36. Bit rate                                 : 640 kb/s
  37. Channel(s)                               : 6 channels
  38. Channel positions                        : Front: L C R, Side: L R, LFE
  39. Sampling rate                            : 48.0 kHz
  40. Frame rate                               : 31.250 FPS (1536 SPF)
  41. Bit depth                                : 16 bits
  42. Compression mode                         : Lossy
  43. Stream size                              : 508 MiB (12%)
  44. Title                                    : Japanese DD 5.1 @ 640 Kbps
  45. Language                                 : Japanese
  46. Service kind                             : Complete Main
  47. Default                                  : Yes
  48. Forced                                   : No

  49. Text
  50. ID                                       : 3
  51. Format                                   : ASS
  52. Codec ID                                 : S_TEXT/ASS
  53. Codec ID/Info                            : Advanced Sub Station Alpha
  54. Duration                                 : 1 h 47 min
  55. Bit rate                                 : 86 b/s
  56. Count of elements                        : 1295
  57. Compression mode                         : Lossless
  58. Stream size                              : 68.4 KiB (0%)
  59. Title                                    : Traditional Chinese (SUBPIG)
  60. Language                                 : Chinese
  61. Default                                  : Yes
  62. Forced                                   : No

  63. Menu
  64. 00:00:00.000                             : :00:00:00.000
  65. 00:21:57.525                             : :00:21:57.525
  66. 00:36:29.229                             : :00:36:29.229
  67. 00:50:19.850                             : :00:50:19.850
  68. 01:09:22.700                             : :01:09:22.700
  69. 01:30:15.201                             : :01:30:15.201
复制代码

复制代码

雪恨女孩/复仇女孩 Revenge.Girl.2017.JAPANESE.720p.BluRay.x264-WiKi 4.24GB-2.png 雪恨女孩/复仇女孩 Revenge.Girl.2017.JAPANESE.720p.BluRay.x264-WiKi 4.24GB-3.png 雪恨女孩/复仇女孩 Revenge.Girl.2017.JAPANESE.720p.BluRay.x264-WiKi 4.24GB-4.png






回复

使用道具 举报

蓝光币
918
发表于 2018-9-16 08:46:52 | 显示全部楼层
桐谷美玲,美女一枚,多谢楼主分享好电影
回复 支持 反对

使用道具 举报

懒得打字嘛,点击右侧快捷回复 【右侧内容,后台自定义】
您需要登录后才可以回帖 登录 | 立即加入

本版积分规则

Archiver|小黑屋| 蓝光电影网 |网站地图

Copyright © 2021 Comsenz Inc. Powered by 蓝光电影网

蓝光电影网

本站内容由用户自主分享和转载自互联网,转载目的在于传递更多信息,并不代表本网赞同其观点和对其真实性负责。

如有侵权、违反国家法律政策行为,请联系我们,我们会第一时间及时清除和处理!

举报反馈邮箱:[email protected]

快速回复 返回顶部 返回列表