找回密码

蓝光电影网

查看: 563|回复: 0

[剧情] 末路丢失/失去一切前 Just.Before.Losing.Everything.2013.SUBBED.720p.BluRay.x264-DEPTH 1.08GB

[复制链接]
蓝光币
623
发表于 2018-9-15 17:36:51 | 显示全部楼层 |阅读模式

末路丧失/落空一切前 Just.Before.Losing.Everything.2013.SUBBED.720p.BluRay.x264-DEPTH 1.08GB-1.jpg
◎译  名 末路丧失/落空一切前/在落空一切之前/一无一切之前
◎片  名 Avant que de tout perdre
◎年  代 2013
◎产  地 法国
◎类  别 剧情/短片
◎语  言 法语
◎上映日期 2013-01-23(法国)
◎豆瓣评分 7.5/10 from 485 users
◎豆瓣链接 https://movie.douban.com/subject/24873799/
◎片  长 29分钟
◎导  演 泽维尔·勒格朗 Xavier Legrand
◎主  演 蕾雅·德吕盖 Léa Drucker
      安妮·波努瓦   Anne Beno?t
      米利安·查特连 Miljan Chatelain
      丹尼斯·门诺切特 Denis Ménochet

◎简  介

  在超市工作的Miriam被丈夫凌虐,决议在同事的帮助下带着两个孩子逃走。

◎获奖情况

  第86届奥斯卡金像奖  (2014)
  最好真人短片(提名) 泽维尔·勒格朗 / Alexandre Gavras

  第39届法国凯撒电影奖  (2014)
  最好短片 泽维尔·勒格朗 / Alexandre Gavras

  1. Video
  2. ID                                       : 1
  3. Format                                   : AVC
  4. Format/Info                              : Advanced Video Codec
  5. Format profile                           : [url=/cdn-cgi/l/email-protection][email protected][/url]
  6. Format settings                          : CABAC / 12 Ref Frames
  7. Format settings, CABAC                   : Yes
  8. Format settings, RefFrames               : 12 frames
  9. Codec ID                                 : V_MPEG4/ISO/AVC
  10. Duration                                 : 30 min 24 s
  11. Bit rate                                 : 4 801 kb/s
  12. Width                                    : 1 280 pixels
  13. Height                                   : 544 pixels
  14. Display aspect ratio                     : 2.35:1
  15. Frame rate mode                          : Constant
  16. Frame rate                               : 24.000 FPS
  17. Color space                              : YUV
  18. Chroma subsampling                       : 4:2:0
  19. Bit depth                                : 8 bits
  20. Scan type                                : Progressive
  21. Bits/(Pixel*Frame)                       : 0.287
  22. Stream size                              : 1.02 GiB (94%)
  23. Writing library                          : x264 core 155 r2901 7d0ff22
  24. Encoding settings                        : cabac=1 / ref=12 / deblock=1:-2:-2 / analyse=0x3:0x133 / me=umh / subme=10 / psy=1 / psy_rd=1.00:0.15 / mixed_ref=1 / me_range=32 / chroma_me=1 / trellis=2 / 8x8dct=1 / cqm=0 / deadzone=21,11 / fast_pskip=0 / chroma_qp_offset=-3 / threads=17 / lookahead_threads=2 / sliced_threads=0 / nr=0 / decimate=1 / interlaced=0 / bluray_compat=0 / constrained_intra=0 / bframes=8 / b_pyramid=2 / b_adapt=2 / b_bias=0 / direct=3 / weightb=1 / open_gop=0 / weightp=2 / keyint=240 / keyint_min=24 / scenecut=40 / intra_refresh=0 / rc_lookahead=60 / rc=2pass / mbtree=1 / bitrate=4801 / ratetol=1.0 / qcomp=0.60 / qpmin=0 / qpmax=69 / qpstep=4 / cplxblur=20.0 / qblur=0.5 / ip_ratio=1.40 / aq=3:0.90
  25. Default                                  : Yes
  26. Forced                                   : No

  27. Audio
  28. ID                                       : 2
  29. Format                                   : FLAC
  30. Format/Info                              : Free Lossless Audio Codec
  31. Codec ID                                 : A_FLAC
  32. Duration                                 : 30 min 24 s
  33. Bit rate mode                            : Variable
  34. Bit rate                                 : 298 kb/s
  35. Channel(s)                               : 2 channels
  36. Channel positions                        : Front: L R
  37. Sampling rate                            : 48.0 kHz
  38. Frame rate                               : 11.719 FPS (4096 SPF)
  39. Bit depth                                : 16 bits
  40. Stream size                              : 64.8 MiB (6%)
  41. Writing library                          : libFLAC 1.2.1 (UTC 2007-09-17)
  42. Language                                 : French
  43. Default                                  : Yes
  44. Forced                                   : No

  45. Menu
  46. 00:00:00.000                             : en:00:00:00.000
  47. 00:09:24.000                             : en:00:09:24.000
  48. 00:21:24.000                             : en:00:21:24.000
复制代码

复制代码

末路丧失/落空一切前 Just.Before.Losing.Everything.2013.SUBBED.720p.BluRay.x264-DEPTH 1.08GB-2.jpg






回复

使用道具 举报

懒得打字嘛,点击右侧快捷回复 【右侧内容,后台自定义】
您需要登录后才可以回帖 登录 | 立即加入

本版积分规则

Archiver|小黑屋| 蓝光电影网 |网站地图

Copyright © 2021 Comsenz Inc. Powered by 蓝光电影网

蓝光电影网

本站内容由用户自主分享和转载自互联网,转载目的在于传递更多信息,并不代表本网赞同其观点和对其真实性负责。

如有侵权、违反国家法律政策行为,请联系我们,我们会第一时间及时清除和处理!

举报反馈邮箱:[email protected]

快速回复 返回顶部 返回列表