找回密码

蓝光电影网

查看: 849|回复: 1

[剧情] 监护风云/监护权争战 Custody.2017.720p.BluRay.x264-DEPTH 4.36GB

[复制链接]
蓝光币
733
发表于 2018-9-15 17:38:56 | 显示全部楼层 |阅读模式

监护风云/监护权争战 Custody.2017.720p.BluRay.x264-DEPTH 4.36GB-1.jpg
◎译  名 监护风云/监护权争战(港)/家战(台)/监护权/倾尽一切
◎片  名 Jusqu’à la Garde
◎年  代 2017
◎产  地 法国
◎类  别 剧情
◎语  言 法语
◎上映日期 2017-09-08(威尼斯电影节)/2018-02-07(法国)
◎豆瓣评分 7.3/10 from 1,630 users
◎豆瓣链接 https://movie.douban.com/subject/26995532/
◎片  长 93分钟
◎导  演 泽维尔·勒格朗 Xavier Legrand
◎主  演 蕾雅·德吕盖 Léa Drucker
      德尼·梅诺谢 Denis Ménochet
      托马斯·乔里亚 Thomas Gioria
      马蒂尔德·奥恩维尔 Mathilde Auneveux
      马蒂厄·赛卡利 Mathieu Saikaly
      弗洛伦斯·詹纳斯 Florence Janas
      莎迪娅·本太耶布 Saadia Benta?eb
      科拉莉·吕西耶 Coralie Russier
      索菲·彭塞米勒 Sophie Pincemaille
      埃米利·因斯尔蒂·福门蒂尼 Emilie Incerti-Formentini
      珍妮·贝莱 Jenny Bellay
      让-马利·文灵 Jean-Marie Winling

◎简  介

  当米里亚姆(蕾雅·德吕盖 饰)跟丈夫安托万·北松(德尼·梅诺谢 饰)仳离后,她希望12 岁的儿子朱利安(托马斯·吉奥利亚)可以阔别具有暴力偏向的父亲,故向法庭申请零丁抚养权。但是安托万成功在庭上压服法官,法官终极判处双方具有配合监护权。大受冲击的米里亚姆除了要接管未如所愿的裁判外,还要提防前夫别有专心的父亲。面临水火不容的双亲,身处夹缝中的朱利安不能不想尽一切法子,阻止家庭危机。

◎获奖情况

  第74届威尼斯电影节  (2017)
  主比赛单元 金狮奖 (提名) 泽维尔·勒格朗
  银狮奖 最好导演 泽维尔·勒格朗
  银狮奖 最好童贞作 泽维尔·勒格朗

  1. Video
  2. ID                                       : 1
  3. Format                                   : AVC
  4. Format/Info                              : Advanced Video Codec
  5. Format profile                           : [url=/cdn-cgi/l/email-protection][email protected][/url]
  6. Format settings                          : CABAC / 12 Ref Frames
  7. Format settings, CABAC                   : Yes
  8. Format settings, RefFrames               : 12 frames
  9. Codec ID                                 : V_MPEG4/ISO/AVC
  10. Duration                                 : 1 h 34 min
  11. Bit rate                                 : 5 135 kb/s
  12. Width                                    : 1 280 pixels
  13. Height                                   : 536 pixels
  14. Display aspect ratio                     : 2.40:1
  15. Frame rate mode                          : Constant
  16. Frame rate                               : 24.000 FPS
  17. Color space                              : YUV
  18. Chroma subsampling                       : 4:2:0
  19. Bit depth                                : 8 bits
  20. Scan type                                : Progressive
  21. Bits/(Pixel*Frame)                       : 0.312
  22. Stream size                              : 3.37 GiB (77%)
  23. Writing library                          : x264 core 155 r2901 7d0ff22
  24. Encoding settings                        : cabac=1 / ref=12 / deblock=1:-2:-2 / analyse=0x3:0x133 / me=umh / subme=10 / psy=1 / psy_rd=1.00:0.15 / mixed_ref=1 / me_range=32 / chroma_me=1 / trellis=2 / 8x8dct=1 / cqm=0 / deadzone=21,11 / fast_pskip=0 / chroma_qp_offset=-3 / threads=17 / lookahead_threads=2 / sliced_threads=0 / nr=0 / decimate=1 / interlaced=0 / bluray_compat=0 / constrained_intra=0 / bframes=8 / b_pyramid=2 / b_adapt=2 / b_bias=0 / direct=3 / weightb=1 / open_gop=0 / weightp=2 / keyint=240 / keyint_min=24 / scenecut=40 / intra_refresh=0 / rc_lookahead=60 / rc=2pass / mbtree=1 / bitrate=5135 / ratetol=1.0 / qcomp=0.60 / qpmin=0 / qpmax=69 / qpstep=4 / cplxblur=20.0 / qblur=0.5 / ip_ratio=1.40 / aq=3:0.90
  25. Default                                  : Yes
  26. Forced                                   : No

  27. Audio
  28. ID                                       : 2
  29. Format                                   : DTS
  30. Format/Info                              : Digital Theater Systems
  31. Mode                                     : 16
  32. Format settings, Endianness              : Big
  33. Codec ID                                 : A_DTS
  34. Duration                                 : 1 h 34 min
  35. Bit rate mode                            : Constant
  36. Bit rate                                 : 1 509 kb/s
  37. Channel(s)                               : 6 channels
  38. Channel positions                        : Front: L C R, Side: L R, LFE
  39. Sampling rate                            : 48.0 kHz
  40. Frame rate                               : 93.750 FPS (512 SPF)
  41. Bit depth                                : 24 bits
  42. Compression mode                         : Lossy
  43. Stream size                              : 1 015 MiB (23%)
  44. Language                                 : French
  45. Default                                  : Yes
  46. Forced                                   : No

  47. Text
  48. ID                                       : 3
  49. Format                                   : UTF-8
  50. Codec ID                                 : S_TEXT/UTF8
  51. Codec ID/Info                            : UTF-8 Plain Text
  52. Duration                                 : 1 h 31 min
  53. Bit rate                                 : 29 b/s
  54. Count of elements                        : 702
  55. Stream size                              : 20.2 KiB (0%)
  56. Language                                 : English
  57. Default                                  : Yes
  58. Forced                                   : No

  59. Menu
  60. 00:00:00.000                             : en:00:00:00.000
  61. 00:07:38.167                             : en:00:07:38.167
  62. 00:16:32.417                             : en:00:16:32.417
  63. 00:24:48.625                             : en:00:24:48.625
  64. 00:42:24.625                             : en:00:42:24.625
  65. 01:00:14.000                             : en:01:00:14.000
  66. 01:14:28.958                             : en:01:14:28.958
  67. 01:28:47.250                             : en:01:28:47.250
复制代码

复制代码

监护风云/监护权争战 Custody.2017.720p.BluRay.x264-DEPTH 4.36GB-2.jpg






回复

使用道具 举报

懒得打字嘛,点击右侧快捷回复 【右侧内容,后台自定义】
您需要登录后才可以回帖 登录 | 立即加入

本版积分规则

Archiver|小黑屋| 蓝光电影网 |网站地图

Copyright © 2021 Comsenz Inc. Powered by 蓝光电影网

蓝光电影网

本站内容由用户自主分享和转载自互联网,转载目的在于传递更多信息,并不代表本网赞同其观点和对其真实性负责。

如有侵权、违反国家法律政策行为,请联系我们,我们会第一时间及时清除和处理!

举报反馈邮箱:[email protected]

快速回复 返回顶部 返回列表