蓝光电影网

 找回密码
 立即加入
搜索
查看: 994|回复: 14

[2160p] 信使 The.Courier.2020.2160p.AMZN.WEB-DL.x265.10bit.HDR10Plus.DDP5.1-RUMOUR 11.79GB

[复制链接]
蓝光币
159
发表于 2021-4-19 22:50:13 | 显示全部楼层 |阅读模式


◎译  名 信使/Ironbark/情报人员/铁幕行动(台)/铁皮木
◎片  名 The Courier
◎年  代 2020
◎产  地 英国
◎类  别 惊悚
◎语  言 英语
◎上映日期 2020-01-24(圣丹斯电影节) / 2021-03-19(美国) / 2021-05-17(英国)
◎IMDb评分  7.2/10 from 3539 users
◎IMDb链接  https://www.imdb.com/title/tt8368512/
◎豆瓣评分 7.3/10 from 739 users
◎豆瓣链接 https://movie.douban.com/subject/30212001/
◎片  长 111分钟
◎导  演 多米尼克·库克 Dominic Cooke
◎编  剧 汤姆·奥康纳 Tom O'Connor
◎主  演 本尼迪克特·康伯巴奇 Benedict Cumberbatch
       瑞秋·布罗斯纳安 Rachel Brosnahan
       梅拉布·尼尼泽 Merab Ninidze
       玛丽亚·米罗诺娃 Mariya Mironova
       安东·莱瑟 Anton Lesser
       安格斯·瑞特 Angus Wright
       大卫·巴克·琼斯 David Bark-Jones
       米尔斯·理查森 Miles Richardson
       杰西·巴克利 Jessie Buckley
       基里尔·彼洛高夫 Kirill Pirogov
       Yuri Klimov
       马里安·洛伦西克 Marian Lorencik
       艾丽丝·奥尔尤因 Alice Orr-Ewing
       乔纳森·哈登 Jonathan Harden
       伊莲娜·艾尔米纳斯 Elina Alminas
       阿勒斯·比利克 Ales Bilík
       安德烈·库尔加诺夫 Andrey Kurganov
       奥德·马利 Ondrej Maly
       贝恩·科拉科 Bern Colla?o
       迪诺·布加迪 Deano Bugatti
       拉塞尔·巴洛格 Russell Balogh
       约瑟夫·巴德拉玛 Joseph Balderrama
       Angus Wright
◎标  签 间谍 | 英国 | 冷战 | 卷福 | BenedictCumberbatch | 战争 | 英国电影 | 本尼
◎简  介


  本尼迪克特·康伯巴奇将出演冷战时期的英国“间谍”Greville Wynne,他将主演FilmNation投资的新片《铁皮木》(Ironbark),据悉风格会类似康伯巴奇也出演了的《锅匠,裁缝,士兵,间谍》,改编自Wynne的真实故事:他是一名英国商人,在冷战时期帮助CIA渗透了苏联的核武器项目,他和他的苏联消息源Oleg Penkovsky提供了终结古巴导弹危机的关键情报。该片将由Dominic Cooke(《在切瑟尔海滩上》)执导,他与康伯巴奇已合作过BBC剧集《空王冠》,初版剧本编剧是Tom O’Connor(《王牌保镖》)。
  1. Video
  2. ID                                       : 1
  3. Format                                   : HEVC
  4. Format/Info                              : High Efficiency Video Coding
  5. Format profile                           : Main [email protected]@Main
  6. HDR format                               : SMPTE ST 2094 App 4, Version 1, HDR10+ Profile B compatible
  7. Codec ID                                 : V_MPEGH/ISO/HEVC
  8. Duration                                 : 1 h 52 min
  9. Bit rate                                 : 14.4 Mb/s
  10. Width                                    : 3 840 pixels
  11. Height                                   : 1 600 pixels
  12. Display aspect ratio                     : 2.40:1
  13. Frame rate mode                          : Constant
  14. Frame rate                               : 23.976 (24000/1001/189150) FPS
  15. Color space                              : YUV
  16. Chroma subsampling                       : 4:2:0
  17. Bit depth                                : 10 bits
  18. Bits/(Pixel*Frame)                       : 0.098
  19. Stream size                              : 11.3 GiB (96%)
  20. Language                                 : English
  21. Default                                  : Yes
  22. Forced                                   : No
  23. Color range                              : Limited
  24. Color primaries                          : BT.2020
  25. Transfer characteristics                 : PQ
  26. Matrix coefficients                      : BT.2020 non-constant
  27. Mastering display color primaries        : Display P3
  28. Mastering display luminance              : min: 0.0001 cd/m2, max: 1000 cd/m2
  29. Maximum Content Light Level              : 863 cd/m2
  30. Maximum Frame-Average Light Level        : 115 cd/m2

  31. Audio
  32. ID                                       : 2
  33. Format                                   : E-AC-3
  34. Format/Info                              : Enhanced AC-3
  35. Commercial name                          : Dolby Digital Plus
  36. Codec ID                                 : A_EAC3
  37. Duration                                 : 1 h 52 min
  38. Bit rate mode                            : Constant
  39. Bit rate                                 : 640 kb/s
  40. Channel(s)                               : 6 channels
  41. Channel layout                           : L R C LFE Ls Rs
  42. Sampling rate                            : 48.0 kHz
  43. Frame rate                               : 31.250 FPS (1536 SPF)
  44. Compression mode                         : Lossy
  45. Stream size                              : 513 MiB (4%)
  46. Language                                 : English
  47. Service kind                             : Complete Main
  48. Default                                  : Yes
  49. Forced                                   : No

  50. Text
  51. ID                                       : 3
  52. Format                                   : UTF-8
  53. Codec ID                                 : S_TEXT/UTF8
  54. Codec ID/Info                            : UTF-8 Plain Text
  55. Duration                                 : 1 h 43 min
  56. Bit rate                                 : 53 b/s
  57. Count of elements                        : 1278
  58. Stream size                              : 40.2 KiB (0%)
  59. Title                                    : English
  60. Language                                 : English
  61. Default                                  : No
  62. Forced                                   : No
复制代码



                                       
                                       

                                       
                                       
                                       




The.Courier.2020.2160p.AMZN.WEB-DL.x265.10bit.HDR10Plus.DDP5.1-RUMOUR.zip (59.73 KB)
回复

使用道具 举报

蓝光币
1237
发表于 2021-4-26 13:06:56 | 显示全部楼层

既然你诚信诚意的推荐了,那我就勉为其难的看看吧!蓝光电影网不走平凡路。
回复 支持 反对

使用道具 举报

蓝光币
2869
发表于 2021-5-1 21:24:23 | 显示全部楼层

既然你诚信诚意的推荐了,那我就勉为其难的看看吧!蓝光电影网不走平凡路。
回复 支持 反对

使用道具 举报

蓝光币
1
发表于 2021-5-2 22:15:46 | 显示全部楼层

感谢楼主的无私分享!要想蓝光电影网好 就靠你我他
回复 支持 反对

使用道具 举报

蓝光币
2
发表于 2021-5-3 09:41:56 | 显示全部楼层

楼主太厉害了!楼主,电影应该很好看我觉得蓝光电影网真是个好地方!
回复 支持 反对

使用道具 举报

蓝光币
9
发表于 2021-5-3 18:12:17 | 显示全部楼层

其实我一直觉得楼主的品味不错!呵呵!蓝光电影网太棒了!
回复 支持 反对

使用道具 举报

蓝光币
18
发表于 2021-5-3 19:03:08 | 显示全部楼层
有字幕吗?
回复

使用道具 举报

蓝光币
150
发表于 2021-5-6 10:25:09 | 显示全部楼层
谢谢您的分享!谢谢!辛苦了!
回复 支持 反对

使用道具 举报

蓝光币
1
发表于 2021-5-9 01:10:53 | 显示全部楼层

楼主太厉害了!楼主,电影应该很好看我觉得蓝光电影网真是个好地方!
回复 支持 反对

使用道具 举报

蓝光币
26
发表于 2021-5-9 04:09:26 | 显示全部楼层

我看不错噢 谢谢楼主!蓝光电影网越来越好!
回复 支持 反对

使用道具 举报

懒得打字嘛,点击右侧快捷回复 【右侧内容,后台自定义】
您需要登录后才可以回帖 登录 | 立即加入

本版积分规则

小黑屋|蓝光电影网 |网站地图 

GMT+8, 2021-8-2 04:35 , Processed in 0.082422 second(s), 41 queries .

Powered by 蓝光电影网

Copyright © 2021,[蓝光电影网] 举报反馈邮箱:kf4k1080#hotmail.com(#[email protected])

免责声明:本站所有资源均收集自互联网,没有提供影片资源存储,也未参与录制、上传。若本站收录的资源涉及您的版权或知识产权或其他利益,请附上版权证明邮件告知,在收到邮件后24小时内删除。

快速回复 返回顶部 返回列表