蓝光电影网

 找回密码
 立即加入
搜索
查看: 1974|回复: 31

[2160p] 皇家次子女秘密组织 Secret.Society.of.Second.Born.Royals.2020.2160p.WEB-DL.x265.10bit.HDR.DDP5.1.Atmos-SWTYBLZ 15.75GB

[复制链接]
蓝光币
159
发表于 2021-4-23 22:51:02 | 显示全部楼层 |阅读模式


◎译  名 皇家次子女秘密组织
◎片  名 Secret Society of Second Born Royals
◎年  代 2020
◎产  地 美国
◎类  别 科幻
◎语  言 英语
◎上映日期 2020-09-25(美国)
◎IMDb评分  4.8/10 from 3611 users
◎IMDb链接  https://www.imdb.com/title/tt10324122/
◎豆瓣评分 3.9/10 from 459 users
◎豆瓣链接 https://movie.douban.com/subject/33440336/
◎片  长 97分钟
◎导  演 安娜·马斯特罗 Anna Mastro
◎编  剧 亚历克斯·利特瓦克 Alex Litvak
◎主  演 格雷格·布瑞克 Greg Bryk
       艾洛蒂·袁 Elodie Yung
       斯盖拉·阿斯丁 Skylar Astin
       佩顿·伊丽莎白·李 Peyton Elizabeth Lee
       奈尔斯·菲奇 Niles Fitch
       阿什利·廖 Ashley Liao
       伊莎贝拉·布莱克·托马斯 Isabella Blake-Thomas
       诺亚·罗麦克斯 Noah Lomax
       贾斯达达 Jas Dhanda
◎标  签 迪士尼 | 美国 | 科幻 | 2020 | 冒险 | 魔幻 | 动作 | 美国电影
◎简  介


  一个现代王国Illyria的公主Sam,性格叛逆,是王位的第二继承人。正当Sam对王位的漠不关心值达到人生新高时,她惊讶地发现自己有超能力,而且属于一个长期以来偷偷摸摸保护全国和平的秘密组织。影片聚焦Sam的历险:她加入了这个属于最高机密的训练项目,目的是训练皇室的次子女们来肩负拯救世界的任务。
  1. Video
  2. ID                                       : 1
  3. Format                                   : HEVC
  4. Format/Info                              : High Efficiency Video Coding
  5. Format profile                           : Main [email protected]@Main
  6. Codec ID                                 : V_MPEGH/ISO/HEVC
  7. Duration                                 : 1 h 37 min
  8. Bit rate                                 : 22.5 Mb/s
  9. Width                                    : 3 840 pixels
  10. Height                                   : 2 160 pixels
  11. Display aspect ratio                     : 16:9
  12. Frame rate mode                          : Constant
  13. Frame rate                               : 23.976 (24000/1001/189150) FPS
  14. Color space                              : YUV
  15. Chroma subsampling                       : 4:2:0
  16. Bit depth                                : 10 bits
  17. Bits/(Pixel*Frame)                       : 0.113
  18. Stream size                              : 15.2 GiB (97%)
  19. Writing library                          : x265 3.4:[Linux][GCC 7.5.0][64 bit] 10bit
  20. Encoding settings                        : cpuid=1111039 / frame-threads=1 / wpp / no-pmode / no-pme / no-psnr / no-ssim / log-level=2 / input-csp=1 / input-res=3840x2160 / interlace=0 / total-frames=0 / level-idc=50 / high-tier=0 / uhd-bd=0 / ref=3 / no-allow-non-conformance / repeat-headers / annexb / no-aud / no-hrd / info / hash=0 / no-temporal-layers / no-open-gop / min-keyint=48 / keyint=48 / gop-lookahead=0 / bframes=2 / b-adapt=0 / b-pyramid / bframe-bias=0 / rc-lookahead=48 / lookahead-slices=8 / scenecut=0 / hist-scenecut=0 / radl=0 / splice / no-intra-refresh / ctu=32 / min-cu-size=8 / no-rect / no-amp / max-tu-size=16 / tu-inter-depth=2 / tu-intra-depth=2 / limit-tu=0 / rdoq-level=1 / dynamic-rd=0.00 / no-ssim-rd / signhide / no-tskip / nr-intra=0 / nr-inter=0 / no-constrained-intra / no-strong-intra-smoothing / max-merge=3 / limit-refs=1 / no-limit-modes / me=1 / subme=2 / merange=44 / temporal-mvp / no-frame-dup / no-hme / weightp / no-weightb / no-analyze-src-pics / deblock=0:0 / no-sao / no-sao-non-deblock / rd=4 / selective-sao=0 / early-skip / rskip / no-fast-intra / no-tskip-fast / no-cu-lossless / b-intra / no-splitrd-skip / rdpenalty=1 / psy-rd=1.60 / psy-rdoq=5.00 / no-rd-refine / no-lossless / cbqpoffs=0 / crqpoffs=0 / rc=abr / bitrate=23000 / qcomp=0.75 / qpstep=4 / stats-write=0 / stats-read=0 / vbv-maxrate=25000 / vbv-bufsize=25000 / vbv-init=0.9 / ipratio=1.40 / pbratio=1.30 / aq-mode=3 / aq-strength=1.00 / no-cutree / zone-count=0 / no-strict-cbr / qg-size=32 / no-rc-grain / qpmax=69 / qpmin=0 / no-const-vbv / sar=1 / overscan=0 / videoformat=5 / range=0 / colorprim=9 / transfer=16 / colormatrix=9 / chromaloc=0 / display-window=0 / cll=0,0 / min-luma=0 / max-luma=1023 / log2-max-poc-lsb=8 / vui-timing-info / vui-hrd-info / slices=1 / no-opt-qp-pps / no-opt-ref-list-length-pps / no-multi-pass-opt-rps / scenecut-bias=0.00 / hist-threshold=0.01 / no-opt-cu-delta-qp / no-aq-motion / no-hdr10 / hdr10-opt / no-dhdr10-opt / no-idr-recovery-sei / analysis-reuse-level=0 / analysis-save-reuse-level=0 / analysis-load-reuse-level=0 / scale-factor=0 / refine-intra=0 / refine-inter=0 / refine-mv=1 / refine-ctu-distortion=0 / no-limit-sao / ctu-info=0 / no-lowpass-dct / refine-analysis-type=0 / copy-pic=1 / max-ausize-factor=1.0 / no-dynamic-refine / no-single-sei / no-hevc-aq / no-svt / no-field / qp-adaptation-range=1.00 / no-scenecut-aware-qpconformance-window-offsets / right=0 / bottom=0
  21. Default                                  : Yes
  22. Forced                                   : No
  23. Color range                              : Limited
  24. Color primaries                          : BT.2020
  25. Transfer characteristics                 : PQ
  26. Matrix coefficients                      : BT.2020 non-constant

  27. Audio
  28. ID                                       : 2
  29. Format                                   : E-AC-3 JOC
  30. Format/Info                              : Enhanced AC-3 with Joint Object Coding
  31. Commercial name                          : Dolby Digital Plus with Dolby Atmos
  32. Codec ID                                 : A_EAC3
  33. Duration                                 : 1 h 37 min
  34. Bit rate mode                            : Constant
  35. Bit rate                                 : 768 kb/s
  36. Channel(s)                               : 6 channels
  37. Channel layout                           : L R C LFE Ls Rs
  38. Sampling rate                            : 48.0 kHz
  39. Frame rate                               : 31.250 FPS (1536 SPF)
  40. Compression mode                         : Lossy
  41. Delay relative to video                  : -1 ms
  42. Stream size                              : 533 MiB (3%)
  43. Title                                    : English
  44. Language                                 : English
  45. Service kind                             : Complete Main
  46. Default                                  : Yes
  47. Forced                                   : No
  48. Complexity index                         : 16
  49. Number of dynamic objects                : 15
  50. Bed channel count                        : 1 channel
  51. Bed channel configuration                : LFE

  52. Text #1
  53. ID                                       : 3
  54. Format                                   : UTF-8
  55. Codec ID                                 : S_TEXT/UTF8
  56. Codec ID/Info                            : UTF-8 Plain Text
  57. Duration                                 : 1 h 36 min
  58. Bit rate                                 : 64 b/s
  59. Count of elements                        : 1356
  60. Stream size                              : 45.7 KiB (0%)
  61. Title                                    : English
  62. Language                                 : English
  63. Default                                  : Yes
  64. Forced                                   : No

  65. Text #2
  66. ID                                       : 4
  67. Format                                   : UTF-8
  68. Codec ID                                 : S_TEXT/UTF8
  69. Codec ID/Info                            : UTF-8 Plain Text
  70. Duration                                 : 1 h 36 min
  71. Bit rate                                 : 73 b/s
  72. Count of elements                        : 1571
  73. Stream size                              : 52.2 KiB (0%)
  74. Title                                    : English [SDH]
  75. Language                                 : English
  76. Default                                  : No
  77. Forced                                   : No

  78. Text #3
  79. ID                                       : 5
  80. Format                                   : UTF-8
  81. Codec ID                                 : S_TEXT/UTF8
  82. Codec ID/Info                            : UTF-8 Plain Text
  83. Duration                                 : 1 h 36 min
  84. Bit rate                                 : 58 b/s
  85. Count of elements                        : 1247
  86. Stream size                              : 41.3 KiB (0%)
  87. Title                                    : Brazilian Portuguese
  88. Language                                 : Portuguese
  89. Default                                  : No
  90. Forced                                   : No

  91. Text #4
  92. ID                                       : 6
  93. Format                                   : UTF-8
  94. Codec ID                                 : S_TEXT/UTF8
  95. Codec ID/Info                            : UTF-8 Plain Text
  96. Duration                                 : 1 h 36 min
  97. Bit rate                                 : 61 b/s
  98. Count of elements                        : 1348
  99. Stream size                              : 43.9 KiB (0%)
  100. Title                                    : Danish
  101. Language                                 : Danish
  102. Default                                  : No
  103. Forced                                   : No

  104. Text #5
  105. ID                                       : 7
  106. Format                                   : UTF-8
  107. Codec ID                                 : S_TEXT/UTF8
  108. Codec ID/Info                            : UTF-8 Plain Text
  109. Duration                                 : 1 h 36 min
  110. Bit rate                                 : 58 b/s
  111. Count of elements                        : 1341
  112. Stream size                              : 41.2 KiB (0%)
  113. Title                                    : German
  114. Language                                 : German
  115. Default                                  : No
  116. Forced                                   : No

  117. Text #6
  118. ID                                       : 8
  119. Format                                   : UTF-8
  120. Codec ID                                 : S_TEXT/UTF8
  121. Codec ID/Info                            : UTF-8 Plain Text
  122. Duration                                 : 1 h 36 min
  123. Bit rate                                 : 58 b/s
  124. Count of elements                        : 1329
  125. Stream size                              : 41.2 KiB (0%)
  126. Title                                    : European Spanish
  127. Language                                 : Spanish
  128. Default                                  : No
  129. Forced                                   : No

  130. Text #7
  131. ID                                       : 9
  132. Format                                   : UTF-8
  133. Codec ID                                 : S_TEXT/UTF8
  134. Codec ID/Info                            : UTF-8 Plain Text
  135. Duration                                 : 1 h 36 min
  136. Bit rate                                 : 56 b/s
  137. Count of elements                        : 1331
  138. Stream size                              : 39.9 KiB (0%)
  139. Title                                    : Finnish
  140. Language                                 : Finnish
  141. Default                                  : No
  142. Forced                                   : No

  143. Text #8
  144. ID                                       : 10
  145. Format                                   : UTF-8
  146. Codec ID                                 : S_TEXT/UTF8
  147. Codec ID/Info                            : UTF-8 Plain Text
  148. Duration                                 : 1 h 36 min
  149. Bit rate                                 : 62 b/s
  150. Count of elements                        : 1345
  151. Stream size                              : 44.3 KiB (0%)
  152. Title                                    : French
  153. Language                                 : French
  154. Default                                  : No
  155. Forced                                   : No

  156. Text #9
  157. ID                                       : 11
  158. Format                                   : UTF-8
  159. Codec ID                                 : S_TEXT/UTF8
  160. Codec ID/Info                            : UTF-8 Plain Text
  161. Duration                                 : 1 h 36 min
  162. Bit rate                                 : 62 b/s
  163. Count of elements                        : 1348
  164. Stream size                              : 44.5 KiB (0%)
  165. Title                                    : Italian
  166. Language                                 : Italian
  167. Default                                  : No
  168. Forced                                   : No

  169. Text #10
  170. ID                                       : 12
  171. Format                                   : UTF-8
  172. Codec ID                                 : S_TEXT/UTF8
  173. Codec ID/Info                            : UTF-8 Plain Text
  174. Duration                                 : 1 h 36 min
  175. Bit rate                                 : 53 b/s
  176. Count of elements                        : 1279
  177. Stream size                              : 37.8 KiB (0%)
  178. Title                                    : Dutch
  179. Language                                 : Dutch
  180. Default                                  : No
  181. Forced                                   : No

  182. Text #11
  183. ID                                       : 13
  184. Format                                   : UTF-8
  185. Codec ID                                 : S_TEXT/UTF8
  186. Codec ID/Info                            : UTF-8 Plain Text
  187. Duration                                 : 1 h 36 min
  188. Bit rate                                 : 53 b/s
  189. Count of elements                        : 1336
  190. Stream size                              : 38.2 KiB (0%)
  191. Title                                    : Norwegian
  192. Language                                 : Norwegian
  193. Default                                  : No
  194. Forced                                   : No

  195. Text #12
  196. ID                                       : 14
  197. Format                                   : UTF-8
  198. Codec ID                                 : S_TEXT/UTF8
  199. Codec ID/Info                            : UTF-8 Plain Text
  200. Duration                                 : 1 h 36 min
  201. Bit rate                                 : 59 b/s
  202. Count of elements                        : 1344
  203. Stream size                              : 42.5 KiB (0%)
  204. Title                                    : Polish
  205. Language                                 : Polish
  206. Default                                  : No
  207. Forced                                   : No

  208. Text #13
  209. ID                                       : 15
  210. Format                                   : UTF-8
  211. Codec ID                                 : S_TEXT/UTF8
  212. Codec ID/Info                            : UTF-8 Plain Text
  213. Duration                                 : 1 h 36 min
  214. Bit rate                                 : 64 b/s
  215. Count of elements                        : 1338
  216. Stream size                              : 46.0 KiB (0%)
  217. Title                                    : Portuguese
  218. Language                                 : Portuguese
  219. Default                                  : No
  220. Forced                                   : No

  221. Text #14
  222. ID                                       : 16
  223. Format                                   : UTF-8
  224. Codec ID                                 : S_TEXT/UTF8
  225. Codec ID/Info                            : UTF-8 Plain Text
  226. Duration                                 : 1 h 36 min
  227. Bit rate                                 : 58 b/s
  228. Count of elements                        : 1348
  229. Stream size                              : 41.6 KiB (0%)
  230. Title                                    : Spanish
  231. Language                                 : Spanish
  232. Default                                  : No
  233. Forced                                   : No

  234. Text #15
  235. ID                                       : 17
  236. Format                                   : UTF-8
  237. Codec ID                                 : S_TEXT/UTF8
  238. Codec ID/Info                            : UTF-8 Plain Text
  239. Duration                                 : 1 h 36 min
  240. Bit rate                                 : 60 b/s
  241. Count of elements                        : 1347
  242. Stream size                              : 43.1 KiB (0%)
  243. Title                                    : Swedish
  244. Language                                 : Swedish
  245. Default                                  : No
  246. Forced                                   : No
复制代码



                                       
                                       

                                       
                                       
                                       




皇家次子女秘密组织 Secret.Society.of.Second.Born.Royals.2020.2160p.WEB-DL.x265.10bit.HDR.DDP5.1.Atmos-SWTYBLZ 15.75GB

Secret.Society.of.Second.Born.Royals.2020.2160p.WEB-DL.x265.10bit.HDR.DDP5.1.Atm.zip

79.54 KB, 下载次数: 103, 下载积分: 蓝光币 -2

回复

使用道具 举报

蓝光币
4
发表于 2021-5-2 02:52:19 | 显示全部楼层

我看不错噢 谢谢楼主!蓝光电影网越来越好!
回复 支持 反对

使用道具 举报

蓝光币
9
发表于 2021-5-2 15:13:38 | 显示全部楼层
楼主发贴辛苦了,谢谢楼主分享!我觉得蓝光电影网是注册对了!
回复 支持 反对

使用道具 举报

蓝光币
2
发表于 2021-5-2 20:08:00 | 显示全部楼层
感谢楼主分享
回复 支持 反对

使用道具 举报

蓝光币
9
发表于 2021-5-3 18:10:31 | 显示全部楼层

我看不错噢 谢谢楼主!蓝光电影网越来越好!
回复 支持 反对

使用道具 举报

蓝光币
9
发表于 2021-5-4 20:14:21 | 显示全部楼层
好资源,谢谢分享。
回复 支持 反对

使用道具 举报

蓝光币
8
发表于 2021-5-5 13:03:34 | 显示全部楼层

既然你诚信诚意的推荐了,那我就勉为其难的看看吧!蓝光电影网不走平凡路。
回复 支持 反对

使用道具 举报

蓝光币
1051
发表于 2021-5-5 13:11:07 | 显示全部楼层

我看不错噢 谢谢楼主!蓝光电影网越来越好!
回复 支持 反对

使用道具 举报

蓝光币
19
发表于 2021-5-5 18:27:37 | 显示全部楼层
顶顶,晚上看
回复 支持 反对

使用道具 举报

蓝光币
0
发表于 2021-5-5 22:21:36 | 显示全部楼层
好东西必须收藏下载,谢谢楼主
回复 支持 反对

使用道具 举报

懒得打字嘛,点击右侧快捷回复 【右侧内容,后台自定义】
您需要登录后才可以回帖 登录 | 立即加入

本版积分规则

小黑屋|蓝光电影网 |网站地图 

GMT+8, 2021-8-2 03:15 , Processed in 0.094962 second(s), 43 queries .

Powered by 蓝光电影网

Copyright © 2021,[蓝光电影网] 举报反馈邮箱:kf4k1080#hotmail.com(#[email protected])

免责声明:本站所有资源均收集自互联网,没有提供影片资源存储,也未参与录制、上传。若本站收录的资源涉及您的版权或知识产权或其他利益,请附上版权证明邮件告知,在收到邮件后24小时内删除。

快速回复 返回顶部 返回列表