蓝光电影网

 找回密码
 立即加入
搜索
查看: 2831|回复: 63

[2160p] 真人快打 Mortal.Kombat.2021.2160p.HMAX.WEB-DL.DDP5.1.Atmos.DV.x265-FLUX 14.34GB

  [复制链接]
蓝光币
159
发表于 2021-4-24 22:33:04 | 显示全部楼层 |阅读模式


◎译  名 真人快打/MK3: Domination/Mortal Kombat 3/Mortal Kombat: Devastation/格斗之王/真人快打:毁灭
◎片  名 Mortal Kombat
◎年  代 2021
◎产  地 澳大利亚,美国
◎类  别 动作 / 奇幻 / 冒险
◎语  言 英语
◎上映日期 2021-04-08(中国香港) / 2021-04-23(美国)
◎IMDb评分  7/10 from 7082 users
◎IMDb链接  https://www.imdb.com/title/tt0293429/
◎豆瓣评分 6.0/10 from 502 users
◎豆瓣链接 https://movie.douban.com/subject/2131664/
◎片  长 110分钟
◎导  演 西蒙·麦奎德 Simon McQuoid
◎编  剧 格雷格·罗素 Greg Russo / 戴夫·卡拉汉姆 Dave Callaham / 奥伦·尤济尔 Oren Uziel / 埃德·布恩 Ed Boon / 约翰·托拜亚斯 John Tobias
◎主  演 刘易斯·陈 Lewis Tan
       乔·塔斯利姆 Joe Taslim
       真田广之 Hiroyuki Sanada
       杰西卡·麦克娜美 Jessica McNamee
       约什·劳森 Josh Lawson
       麦卡德·布鲁克斯 Mehcad Brooks
       林路迪 Ludi Lin
       浅野忠信 Tadanobu Asano
       黄经汉 Chin Han
       麦克斯?黄 Max Huang
       劳拉·布伦特 Laura Brent
       Sisi Stringer
       Mel Jarnson
       Elissa Cadwell
       马蒂尔达·金伯 Matilda Kimber
◎标  签 真人快打 | 游戏改编 | 动作 | 美国 | 游戏电影! | 2021 | 美国电影 | 华纳
◎简  介


  援引That Hashtag Show消息,乔尔·埃哲顿是新线游改电影[真人快打:毁灭]中Kano角色的首选。埃哲顿此番将使用他的澳洲本土口音。本片由温子仁担任制片人,西蒙·麦夸伊德执导,格雷格·罗素已完成了剧本。影片将围绕一个身心俱疲的拳击手科尔·特纳展开,他被招募来帮助保护地球和他的女儿。他必须加入一支战斗队伍,与来自另一个维度的杀手进行一场永恒的战斗。该片有望今夏在澳洲开机。
  1. Video
  2. ID                                       : 1
  3. Format                                   : HEVC
  4. Format/Info                              : High Efficiency Video Coding
  5. Format profile                           : Main [email protected]@Main
  6. HDR format                               : Dolby Vision, Version 1.0, dvhe.05.06, BL+RPU
  7. Codec ID                                 : dvhe
  8. Codec ID/Info                            : High Efficiency Video Coding with Dolby Vision
  9. Duration                                 : 1 h 50 min
  10. Bit rate                                 : 17.9 Mb/s
  11. Width                                    : 3 840 pixels
  12. Height                                   : 2 160 pixels
  13. Display aspect ratio                     : 16:9
  14. Frame rate mode                          : Constant
  15. Frame rate                               : 23.976 (24000/1001/189150) FPS
  16. Color space                              : YUV
  17. Chroma subsampling                       : 4:2:0
  18. Bit depth                                : 10 bits
  19. Bits/(Pixel*Frame)                       : 0.090
  20. Stream size                              : 13.7 GiB (96%)
  21. Writing library                          : x265 3.4hy:[Linux][GCC 7.5.0][64 bit] 10bit
  22. Encoding settings                        : cpuid=1111039 / frame-threads=1 / wpp / no-pmode / no-pme / no-psnr / no-ssim / log-level=2 / input-csp=1 / input-res=3840x2160 / interlace=0 / total-frames=0 / level-idc=0 / high-tier=1 / uhd-bd=0 / ref=4 / no-allow-non-conformance / repeat-headers / annexb / aud / hrd / info / hash=0 / no-temporal-layers / no-open-gop / min-keyint=96 / keyint=96 / gop-lookahead=0 / bframes=4 / b-adapt=2 / b-pyramid / bframe-bias=0 / rc-lookahead=25 / lookahead-slices=4 / scenecut=40 / hist-scenecut=0 / radl=0 / no-splice / no-intra-refresh / ctu=64 / min-cu-size=8 / rect / no-amp / max-tu-size=32 / tu-inter-depth=1 / tu-intra-depth=1 / limit-tu=0 / rdoq-level=2 / dynamic-rd=0.00 / no-ssim-rd / signhide / no-tskip / nr-intra=0 / nr-inter=0 / no-constrained-intra / strong-intra-smoothing / max-merge=3 / limit-refs=3 / limit-modes / me=3 / subme=3 / merange=57 / temporal-mvp / no-frame-dup / no-hme / weightp / no-weightb / no-analyze-src-pics / deblock=0:0 / sao / no-sao-non-deblock / rd=4 / selective-sao=4 / no-early-skip / rskip / no-fast-intra / no-tskip-fast / no-cu-lossless / no-b-intra / no-splitrd-skip / rdpenalty=0 / psy-rd=2.00 / psy-rdoq=1.00 / no-rd-refine / no-lossless / cbqpoffs=0 / crqpoffs=3 / rc=abr / bitrate=18000 / qcomp=0.60 / qpstep=4 / stats-write=0 / stats-read=2 / cplxblur=20.0 / qblur=0.5 / vbv-maxrate=24500 / vbv-bufsize=24500 / vbv-init=0.6 / vbv-end=0.6 / vbv-end-fr-adj=0.0 / ipratio=1.40 / pbratio=1.30 / aq-mode=2 / aq-strength=1.00 / cutree / zone-count=0 / no-strict-cbr / qg-size=32 / no-rc-grain / qpmax=69 / qpmin=0 / no-const-vbv / sar=1 / overscan=0 / videoformat=5 / range=1 / colorprim=2 / transfer=2 / colormatrix=2 / chromaloc=0 / display-window=0 / cll=0,0 / min-luma=0 / max-luma=1023 / log2-max-poc-lsb=8 / vui-timing-info / vui-hrd-info / no-concatenation / slices=1 / no-opt-qp-pps / no-opt-ref-list-length-pps / no-multi-pass-opt-rps / scenecut-bias=0.05 / hist-threshold=0.01 / no-opt-cu-delta-qp / no-aq-motion / no-hdr10 / no-hdr10-opt / no-dhdr10-opt / no-idr-recovery-sei / analysis-reuse-level=0 / analysis-save-reuse-level=0 / analysis-load-reuse-level=0 / scale-factor=0 / refine-intra=0 / refine-inter=0 / refine-mv=1 / refine-ctu-distortion=0 / no-limit-sao / ctu-info=0 / no-lowpass-dct / refine-analysis-type=0 / copy-pic=1 / max-ausize-factor=1.0 / no-dynamic-refine / no-single-sei / no-hevc-aq / no-svt / no-field / qp-adaptation-range=1.00 / no-scenecut-aware-qpconformance-window-offsets / right=0 / bottom=0 / decoder-max-rate=0
  23. Default                                  : Yes
  24. Alternate group                          : 1
  25. Encoded date                             : UTC 2021-04-23 07:13:39
  26. Tagged date                              : UTC 2021-04-23 07:30:46
  27. Color range                              : Full
  28. Codec configuration box                  : hvcC+dvcC

  29. Audio
  30. ID                                       : 2
  31. Format                                   : E-AC-3 JOC
  32. Format/Info                              : Enhanced AC-3 with Joint Object Coding
  33. Commercial name                          : Dolby Digital Plus with Dolby Atmos
  34. Codec ID                                 : ec-3
  35. Duration                                 : 1 h 50 min
  36. Bit rate mode                            : Constant
  37. Bit rate                                 : 768 kb/s
  38. Maximum bit rate                         : 811 kb/s
  39. Channel(s)                               : 6 channels
  40. Channel layout                           : L R C LFE Ls Rs
  41. Sampling rate                            : 48.0 kHz
  42. Frame rate                               : 31.250 FPS (1536 SPF)
  43. Compression mode                         : Lossy
  44. Stream size                              : 604 MiB (4%)
  45. Title                                    : English
  46. Language                                 : English
  47. Service kind                             : Complete Main
  48. Encoded date                             : UTC 2021-04-23 07:30:38
  49. Tagged date                              : UTC 2021-04-23 07:30:46
  50. Complexity index                         : Not present / 16
  51. Number of dynamic objects                : 15
  52. Bed channel count                        : 1 channel
  53. Bed channel configuration                : LFE

  54. Text #1
  55. ID                                       : 3
  56. Format                                   : Timed Text
  57. Codec ID                                 : tx3g
  58. Duration                                 : 1 h 41 min
  59. Bit rate mode                            : Variable
  60. Bit rate                                 : 50 b/s
  61. Stream size                              : 37.7 KiB (0%)
  62. Title                                    : English
  63. Language                                 : English
  64. Forced                                   : No
  65. Encoded date                             : UTC 2021-04-23 07:30:45
  66. Tagged date                              : UTC 2021-04-23 07:30:46

  67. Text #2
  68. ID                                       : 4
  69. Format                                   : Timed Text
  70. Codec ID                                 : tx3g
  71. Duration                                 : 1 h 41 min
  72. Bit rate mode                            : Variable
  73. Bit rate                                 : 50 b/s
  74. Stream size                              : 37.7 KiB (0%)
  75. Title                                    : Spanish
  76. Language                                 : Spanish
  77. Forced                                   : No
  78. Encoded date                             : UTC 2021-04-23 07:30:46
  79. Tagged date                              : UTC 2021-04-23 07:30:46
复制代码



                                       
                                       

                                       
                                       
                                       




Mortal.Kombat.2021.2160p.HMAX.WEB-DL.DDP5.1.Atmos.DV.x265-FLUX.zip (72.46 KB)
回复

使用道具 举报

蓝光币
540
发表于 2021-4-25 12:39:26 | 显示全部楼层
楼主发贴辛苦了,谢谢楼主分享!我觉得蓝光电影网是注册对了!
回复 支持 反对

使用道具 举报

蓝光币
1237
发表于 2021-4-25 13:50:40 | 显示全部楼层

我看不错噢 谢谢楼主!蓝光电影网越来越好!
回复 支持 反对

使用道具 举报

蓝光币
25
发表于 2021-4-26 00:17:08 | 显示全部楼层
好 东西 要顶起来
回复 支持 反对

使用道具 举报

蓝光币
4
发表于 2021-4-26 11:40:43 | 显示全部楼层
终于回来了.......
回复 支持 反对

使用道具 举报

蓝光币
1388
发表于 2021-4-26 12:14:48 | 显示全部楼层
太好啦&萬分感謝版主的無私發佈分享%
回复 支持 反对

使用道具 举报

蓝光币
203
发表于 2021-4-26 15:01:20 | 显示全部楼层

这个帖子不回对不起自己!我想我是一天也不能离开蓝光电影网。
回复 支持 反对

使用道具 举报

蓝光币
479
发表于 2021-4-27 16:45:08 | 显示全部楼层

其实我一直觉得楼主的品味不错!呵呵!蓝光电影网太棒了!
回复 支持 反对

使用道具 举报

蓝光币
2104
发表于 2021-4-27 23:00:35 | 显示全部楼层
楼主发贴辛苦了,谢谢楼主分享!我觉得蓝光电影网是注册对了!
回复 支持 反对

使用道具 举报

蓝光币
2
发表于 2021-4-29 10:32:09 | 显示全部楼层
不够血腥不够暴力 女性角色也不好看
回复 支持 反对

使用道具 举报

懒得打字嘛,点击右侧快捷回复 【右侧内容,后台自定义】
您需要登录后才可以回帖 登录 | 立即加入

本版积分规则

小黑屋|蓝光电影网 |网站地图 

GMT+8, 2021-8-2 05:30 , Processed in 0.080961 second(s), 37 queries .

Powered by 蓝光电影网

Copyright © 2021,[蓝光电影网] 举报反馈邮箱:kf4k1080#hotmail.com(#[email protected])

免责声明:本站所有资源均收集自互联网,没有提供影片资源存储,也未参与录制、上传。若本站收录的资源涉及您的版权或知识产权或其他利益,请附上版权证明邮件告知,在收到邮件后24小时内删除。

快速回复 返回顶部 返回列表