蓝光电影网

 找回密码
 立即加入
搜索
查看: 566|回复: 21

[喜剧] 二十世纪快车 Twentieth.Century.1934.720p.BluRay.x264-ORBS 5.03GB

[复制链接]
蓝光币
159
发表于 2021-4-25 23:39:19 | 显示全部楼层 |阅读模式


◎译  名 二十世纪快车
◎片  名 Twentieth Century
◎年  代 1934
◎产  地 美国
◎类  别 喜剧 / 爱情
◎语  言 英语,德语
◎上映日期 1934-05-11
◎IMDb评分  7.4/10 from 5894 users
◎IMDb链接  https://www.imdb.com/title/tt0025919/
◎豆瓣评分 7.0/10 from 310 users
◎豆瓣链接 https://movie.douban.com/subject/1296701/
◎片  长 91 分钟
◎导  演 霍华德·霍克斯 Howard Hawks
◎编  剧 本·赫克特 Ben Hecht / 查尔斯·麦克阿瑟 Charles MacArthur / 普莱斯顿·斯特奇斯 Preston Sturges / 吉恩·福勒 Gene Fowler / Charles Bruce Millholland
◎主  演 约翰·巴里摩尔 John Barrymore
       卡洛·朗白 Carole Lombard
       沃尔特·康诺利 Walter Connolly
       弗雷德·凯尔西 Fred Kelsey
       Arnold Gray
       罗斯科·卡恩茨 Roscoe Karns
       Clarence Geldart
       查尔斯·莱恩 Charles Lane
       李·科尔马 Lee Kohlmar
       King Mojave
       法兰克·马洛 Frank Marlowe
       Gigi Parrish
       Charles O'Malley
       史蒂夫·彭德尔顿 Steve Pendleton
       Lillian West
       小乔治·奥弗曼 George Offerman Jr.
       Billie Seward
       Harry Semels
       Fred 'Snowflake' Toones
       Sherry Hall
       Etienne Girardot
       拉尔夫·福布斯 Ralph Forbes
       George Reed
       霍华德·C·希克曼 Howard C. Hickman
       埃德加·肯尼迪 Edgar Kennedy
       赫尔曼·宾  Herman Bing
       Lynton Brent
       Nick Copeland
       艾德·钱德勒 Eddy Chandler
       James P. Burtis
       詹姆斯·伯克 James Burke
       帕特·弗莱厄蒂 Pat Flaherty
       戴尔·富勒 Dale Fuller
       A.R. Haysel
◎标  签 美国 | 喜剧 | 霍华德·霍克斯 | 1930s | HowardHawks | 爱情 | 1934 | Howard_Hawks
◎简  介


  纽约百老汇,戏剧导演Oscar Jaffe(约翰·巴里摩尔 John Barrymore 饰)捧红了女演员Lily Garland(卡洛·朗白 Carole Lombard 饰),两人成为百老汇票房保证,同时也是一对情侣。合作三年后,Lily因为受不了Oscar对她私人生活的过度干预,偷偷跑去了好莱坞演电影。Oscar一怒之下起用了新的女演员,可惜票房很差,还在芝加哥欠下了债。在从芝加哥回纽约的二十世纪列车上,Oscar机缘巧合又和Lily在同一列火车上。Oscar试图挽回Lily,不管是爱情还是演戏,但Lily已经有了另外的恋人,也对重新和Oscar合作不感兴趣。这列火车上碰巧有一位脑子不大好使的大富翁,Oscar利用这个富翁给他开了张支票,试图以这张支票来让Lily签了演戏的合约。然而这位所谓“大富翁”原来不过是个精神病人,Oscar手中的支票毫无价值。心灰意冷的Oscar决定开枪自尽......
◎获奖情况
  第2届威尼斯电影节 ?(1934)
  墨索里尼杯最佳国际电影(提名) 霍华德·霍克斯
  1. Video
  2. ID                                       : 1
  3. Format                                   : AVC
  4. Format/Info                              : Advanced Video Codec
  5. Format profile                           : [email protected]
  6. Format settings                          : CABAC / 11 Ref Frames
  7. Format settings, CABAC                   : Yes
  8. Format settings, Reference frames        : 11 frames
  9. Codec ID                                 : V_MPEG4/ISO/AVC
  10. Duration                                 : 1 h 31 min
  11. Bit rate                                 : 7 192 kb/s
  12. Width                                    : 986 pixels
  13. Height                                   : 720 pixels
  14. Display aspect ratio                     : 4:3
  15. Frame rate mode                          : Constant
  16. Frame rate                               : 23.976 (24000/1001/189150) FPS
  17. Color space                              : YUV
  18. Chroma subsampling                       : 4:2:0
  19. Bit depth                                : 8 bits
  20. Scan type                                : Progressive
  21. Bits/(Pixel*Frame)                       : 0.423
  22. Stream size                              : 4.58 GiB (91%)
  23. Writing library                          : x264 core 161 r3048 b86ae3c
  24. Encoding settings                        : cabac=1 / ref=11 / deblock=1:-3:-3 / analyse=0x3:0x133 / me=umh / subme=10 / psy=1 / psy_rd=1.50:0.15 / mixed_ref=1 / me_range=24 / chroma_me=1 / trellis=2 / 8x8dct=1 / cqm=0 / deadzone=21,11 / fast_pskip=0 / chroma_qp_offset=-3 / threads=22 / lookahead_threads=3 / sliced_threads=0 / nr=0 / decimate=0 / interlaced=0 / bluray_compat=0 / constrained_intra=0 / bframes=8 / b_pyramid=2 / b_adapt=2 / b_bias=0 / direct=3 / weightb=1 / open_gop=0 / weightp=2 / keyint=250 / keyint_min=23 / scenecut=40 / intra_refresh=0 / rc_lookahead=60 / rc=crf / mbtree=1 / crf=19.0 / qcomp=0.60 / qpmin=0 / qpmax=69 / qpstep=4 / ip_ratio=1.40 / aq=3:0.50
  25. Default                                  : Yes
  26. Forced                                   : No
  27. Color range                              : Limited
  28. Matrix coefficients                      : BT.709

  29. Audio #1
  30. ID                                       : 2
  31. Format                                   : FLAC
  32. Format/Info                              : Free Lossless Audio Codec
  33. Codec ID                                 : A_FLAC
  34. Duration                                 : 1 h 31 min
  35. Bit rate mode                            : Variable
  36. Bit rate                                 : 547 kb/s
  37. Channel(s)                               : 1 channel
  38. Channel layout                           : C
  39. Sampling rate                            : 48.0 kHz
  40. Frame rate                               : 11.719 FPS (4096 SPF)
  41. Bit depth                                : 24 bits
  42. Compression mode                         : Lossless
  43. Stream size                              : 357 MiB (7%)
  44. Writing library                          : libFLAC 1.3.2 (UTC 2017-01-01)
  45. Language                                 : English
  46. Default                                  : Yes
  47. Forced                                   : No

  48. Audio #2
  49. ID                                       : 3
  50. Format                                   : AAC LC
  51. Format/Info                              : Advanced Audio Codec Low Complexity
  52. Codec ID                                 : A_AAC-2
  53. Duration                                 : 1 h 31 min
  54. Bit rate                                 : 132 kb/s
  55. Channel(s)                               : 2 channels
  56. Channel layout                           : L R
  57. Sampling rate                            : 48.0 kHz
  58. Frame rate                               : 46.875 FPS (1024 SPF)
  59. Compression mode                         : Lossy
  60. Delay relative to video                  : 20 ms
  61. Stream size                              : 87.5 MiB (2%)
  62. Title                                    : Commentary
  63. Language                                 : English
  64. Default                                  : No
  65. Forced                                   : No

  66. Text
  67. ID                                       : 4
  68. Format                                   : PGS
  69. Muxing mode                              : zlib
  70. Codec ID                                 : S_HDMV/PGS
  71. Codec ID/Info                            : Picture based subtitle format used on BDs/HD-DVDs
  72. Duration                                 : 1 h 29 min
  73. Bit rate                                 : 70.5 kb/s
  74. Count of elements                        : 3582
  75. Stream size                              : 45.3 MiB (1%)
  76. Title                                    : SDH
  77. Language                                 : English
  78. Default                                  : No
  79. Forced                                   : No

  80. Menu
  81. 00:00:00.000                             : en:Chapter 01
  82. 00:11:10.545                             : en:Chapter 02
  83. 00:20:08.624                             : en:Chapter 03
  84. 00:27:02.371                             : en:Chapter 04
  85. 00:34:38.326                             : en:Chapter 05
  86. 00:43:22.433                             : en:Chapter 06
  87. 00:53:00.594                             : en:Chapter 07
  88. 01:05:05.985                             : en:Chapter 08
  89. 01:15:42.455                             : en:Chapter 09
  90. 01:21:59.373                             : en:Chapter 10
复制代码




                                       
                                       

                                       
                                       
                                       




Twentieth.Century.1934.720p.BluRay.x264-ORBS.zip (25.9 KB)
回复

使用道具 举报

蓝光币
0
发表于 2021-4-26 20:27:59 | 显示全部楼层
楼主发贴辛苦了,谢谢楼主分享!我觉得蓝光电影网是注册对了!
回复 支持 反对

使用道具 举报

蓝光币
644
发表于 2021-4-26 22:04:18 | 显示全部楼层
楼主发贴辛苦了,谢谢楼主分享!我觉得蓝光电影网是注册对了!
回复 支持 反对

使用道具 举报

蓝光币
3
发表于 2021-4-27 12:52:20 | 显示全部楼层
感谢分享
回复

使用道具 举报

蓝光币
2104
发表于 2021-4-29 00:09:04 | 显示全部楼层
楼主发贴辛苦了,谢谢楼主分享!我觉得蓝光电影网是注册对了!
回复 支持 反对

使用道具 举报

蓝光币
0
发表于 2021-4-30 00:25:56 | 显示全部楼层
终于回归了
回复 支持 反对

使用道具 举报

蓝光币
43
发表于 2021-5-2 11:03:02 | 显示全部楼层
感谢分享     
回复 支持 反对

使用道具 举报

蓝光币
4
发表于 2021-5-3 15:22:10 | 显示全部楼层
什么年代的电影?牛叉
回复 支持 反对

使用道具 举报

蓝光币
394
发表于 2021-5-4 20:51:26 | 显示全部楼层
楼主发贴辛苦了,谢谢楼主分享!我觉得蓝光电影网是注册对了!
回复 支持 反对

使用道具 举报

蓝光币
6
发表于 2021-5-8 22:29:09 | 显示全部楼层
我喜欢这里 大气
回复 支持 反对

使用道具 举报

懒得打字嘛,点击右侧快捷回复 【右侧内容,后台自定义】
您需要登录后才可以回帖 登录 | 立即加入

本版积分规则

小黑屋|蓝光电影网 |网站地图 

GMT+8, 2021-8-2 04:47 , Processed in 0.078481 second(s), 35 queries .

Powered by 蓝光电影网

Copyright © 2021,[蓝光电影网] 举报反馈邮箱:kf4k1080#hotmail.com(#[email protected])

免责声明:本站所有资源均收集自互联网,没有提供影片资源存储,也未参与录制、上传。若本站收录的资源涉及您的版权或知识产权或其他利益,请附上版权证明邮件告知,在收到邮件后24小时内删除。

快速回复 返回顶部 返回列表