蓝光电影网

 找回密码
 立即加入
搜索
查看: 907|回复: 18

[动作] 拦截火狐狸/异种之穿肠破肚 The.Dark.Side.of.the.Moon.1990.1080p.BluRay.x264-GUACAMOLE 8.29GB

[复制链接]
蓝光币
159
发表于 2021-4-25 23:39:36 | 显示全部楼层 |阅读模式


◎译  名 拦截火狐狸/异种之穿肠破肚
◎片  名 The Dark Side of the Moon
◎年  代 1990
◎产  地 美国
◎类  别 动作 / 科幻 / 恐怖
◎语  言 英语
◎上映日期 1990-08-30
◎IMDb评分  5/10 from 2191 users
◎IMDb链接  https://www.imdb.com/title/tt0099364/
◎豆瓣评分 /10 from 0 users
◎豆瓣链接 https://movie.douban.com/subject/1300032/
◎片  长 87分钟
◎编  剧 凯利·海斯 Carey Hayes / 查德·海斯 Chad Hayes
◎主  演 乔·托克尔 Joe Turkel
       艾伦·布卢门菲尔德 Alan Blumenfeld
       约翰·迪尔 John Diehl
       Camilla More
◎标  签 科幻 | 动作 | 恐怖 | 美国 | 电影 | 剧情 | zjhul | 1990s
◎简  介


  It is the year 2022. A mysterious systems failure causes the crew of a spaceship to be stranded on the dark side of the moon, while rapidly running out of fuel and oxygen. They are surprised to discover a NASA space shuttle floating in space, and board it in the hope of salvaging some supplies....
  1. Video
  2. ID                                       : 1
  3. Format                                   : AVC
  4. Format/Info                              : Advanced Video Codec
  5. Format profile                           : [email protected]
  6. Format settings                          : CABAC / 4 Ref Frames
  7. Format settings, CABAC                   : Yes
  8. Format settings, Reference frames        : 4 frames
  9. Codec ID                                 : V_MPEG4/ISO/AVC
  10. Duration                                 : 1 h 31 min
  11. Bit rate                                 : 12.5 Mb/s
  12. Width                                    : 1 920 pixels
  13. Height                                   : 1 040 pixels
  14. Display aspect ratio                     : 1.85:1
  15. Frame rate mode                          : Constant
  16. Frame rate                               : 23.976 (24000/1001/189150) FPS
  17. Color space                              : YUV
  18. Chroma subsampling                       : 4:2:0
  19. Bit depth                                : 8 bits
  20. Scan type                                : Progressive
  21. Bits/(Pixel*Frame)                       : 0.261
  22. Stream size                              : 7.94 GiB (96%)
  23. Writing library                          : x264 core 161 r3048 b86ae3c
  24. Encoding settings                        : cabac=1 / ref=4 / deblock=1:-3:-3 / analyse=0x3:0x133 / me=umh / subme=9 / psy=1 / psy_rd=1.00:0.00 / mixed_ref=1 / me_range=16 / chroma_me=1 / trellis=2 / 8x8dct=1 / cqm=0 / deadzone=21,11 / fast_pskip=0 / chroma_qp_offset=-2 / threads=24 / lookahead_threads=2 / sliced_threads=0 / nr=0 / decimate=1 / interlaced=0 / bluray_compat=0 / constrained_intra=0 / bframes=3 / b_pyramid=2 / b_adapt=2 / b_bias=0 / direct=3 / weightb=1 / open_gop=0 / weightp=2 / keyint=250 / keyint_min=23 / scenecut=40 / intra_refresh=0 / rc_lookahead=60 / rc=crf / mbtree=1 / crf=18.5 / qcomp=0.60 / qpmin=0 / qpmax=69 / qpstep=4 / ip_ratio=1.40 / aq=3:0.60
  25. Default                                  : Yes
  26. Forced                                   : No
  27. Color range                              : Limited
  28. Matrix coefficients                      : BT.709

  29. Audio #1
  30. ID                                       : 2
  31. Format                                   : AC-3
  32. Format/Info                              : Audio Coding 3
  33. Commercial name                          : Dolby Digital
  34. Codec ID                                 : A_AC3
  35. Duration                                 : 1 h 31 min
  36. Bit rate mode                            : Constant
  37. Bit rate                                 : 384 kb/s
  38. Channel(s)                               : 2 channels
  39. Channel layout                           : L R
  40. Sampling rate                            : 48.0 kHz
  41. Frame rate                               : 31.250 FPS (1536 SPF)
  42. Compression mode                         : Lossy
  43. Stream size                              : 250 MiB (3%)
  44. Language                                 : English
  45. Service kind                             : Complete Main
  46. Default                                  : Yes
  47. Forced                                   : No

  48. Audio #2
  49. ID                                       : 3
  50. Format                                   : AAC LC
  51. Format/Info                              : Advanced Audio Codec Low Complexity
  52. Codec ID                                 : A_AAC-2
  53. Duration                                 : 1 h 31 min
  54. Bit rate                                 : 159 kb/s
  55. Channel(s)                               : 2 channels
  56. Channel layout                           : L R
  57. Sampling rate                            : 48.0 kHz
  58. Frame rate                               : 46.875 FPS (1024 SPF)
  59. Compression mode                         : Lossy
  60. Delay relative to video                  : 9 ms
  61. Stream size                              : 104 MiB (1%)
  62. Language                                 : English
  63. Default                                  : No
  64. Forced                                   : No

  65. Menu
  66. 00:00:00.000                             : en:00:00:00.000
  67. 00:13:57.378                             : en:00:13:57.378
  68. 00:25:37.453                             : en:00:25:37.453
  69. 00:33:56.493                             : en:00:33:56.493
  70. 00:45:38.986                             : en:00:45:38.986
  71. 00:52:13.631                             : en:00:52:13.631
  72. 01:03:04.239                             : en:01:03:04.239
  73. 01:15:32.903                             : en:01:15:32.903
复制代码



                                       
                                       

                                       
                                       
                                       




The.Dark.Side.of.the.Moon.1990.1080p.BluRay.x264-GUACAMOLE.zip (42.25 KB)
回复

使用道具 举报

蓝光币
1185
发表于 2021-4-27 00:33:57 | 显示全部楼层
Thanks for sharing
回复 支持 反对

使用道具 举报

蓝光币
166
发表于 2021-4-30 01:34:36 | 显示全部楼层

楼主太厉害了!楼主,电影应该很好看我觉得蓝光电影网真是个好地方!
回复 支持 反对

使用道具 举报

蓝光币
481
发表于 2021-5-1 21:43:30 | 显示全部楼层
楼主发贴辛苦了,谢谢楼主分享!我觉得蓝光电影网是注册对了!
回复 支持 反对

使用道具 举报

蓝光币
9
发表于 2021-5-2 15:17:35 | 显示全部楼层

楼主,我太崇拜你了!我想我是一天也不能离开蓝光电影网。
回复 支持 反对

使用道具 举报

蓝光币
2104
发表于 2021-5-3 01:22:35 | 显示全部楼层
楼主发贴辛苦了,谢谢楼主分享!我觉得蓝光电影网是注册对了!
回复 支持 反对

使用道具 举报

蓝光币
196
发表于 2021-5-5 17:35:36 | 显示全部楼层
楼主发贴辛苦了,谢谢楼主分享!我觉得蓝光电影网是注册对了!
回复 支持 反对

使用道具 举报

蓝光币
1240
发表于 2021-5-6 13:24:01 | 显示全部楼层
楼主发贴辛苦了,谢谢楼主分享!我觉得蓝光电影网是注册对了!
回复 支持 反对

使用道具 举报

蓝光币
126
发表于 2021-5-9 13:28:40 | 显示全部楼层

这东西我收了!谢谢楼主!蓝光电影网真好!
回复 支持 反对

使用道具 举报

蓝光币
3
发表于 2021-5-9 14:53:22 | 显示全部楼层
Thanks for sharing
回复 支持 反对

使用道具 举报

懒得打字嘛,点击右侧快捷回复 【右侧内容,后台自定义】
您需要登录后才可以回帖 登录 | 立即加入

本版积分规则

小黑屋|蓝光电影网 |网站地图 

GMT+8, 2021-8-2 05:15 , Processed in 0.079148 second(s), 35 queries .

Powered by 蓝光电影网

Copyright © 2021,[蓝光电影网] 举报反馈邮箱:kf4k1080#hotmail.com(#[email protected])

免责声明:本站所有资源均收集自互联网,没有提供影片资源存储,也未参与录制、上传。若本站收录的资源涉及您的版权或知识产权或其他利益,请附上版权证明邮件告知,在收到邮件后24小时内删除。

快速回复 返回顶部 返回列表