蓝光电影网

 找回密码
 立即加入
搜索
查看: 679|回复: 18

[动作] 大师/行家 The.Virtuoso.2021.1080p.BluRay.x264.DTS-HD.MA.5.1-MT 16.58GB

[复制链接]
蓝光币
159
发表于 2021-4-25 23:39:42 | 显示全部楼层 |阅读模式


◎译  名 大师/行家
◎片  名 The Virtuoso
◎年  代 2021
◎产  地 美国
◎类  别 动作 / 惊悚 / 犯罪
◎语  言 英语
◎上映日期 2021-04-30(美国/美国网络)
◎IMDb链接  https://www.imdb.com/title/tt4136456/
◎豆瓣评分 /10 from 0 users
◎豆瓣链接 https://movie.douban.com/subject/33441582/
◎主  演 安东尼·霍普金斯 Anthony Hopkins
       艾比·考尼什 Abbie Cornish
       安松·蒙特 Anson Mount
       迪奥拉·拜尔德 Diora Baird
       埃迪·马森 Eddie Marsan
       大卫·摩斯 David Morse
       理查德·布雷克 Richard Brake
       克里斯·佩尔费蒂 Chris Perfetti
       布莱斯·科里根 Blaise Corrigan
◎标  签 安东尼·霍普金斯 | 惊悚 | 犯罪 | 美国 | 动作 | 2021 | 艾比·考尼什 | 电影
◎简  介


  安东尼·霍普金斯、安森·蒙特(《异人族》《星际迷航:发现号》)、艾比·考尼什(《三块广告牌》《明亮的星》)将主演黑色惊悚片《大师》(The Virtuoso,暂译),Nick Stagliano(《美好的一天》)执导。蒙特饰一个职业杀手,欠下他的导师(霍普金斯)很多,为此他得杀掉最新接受的一个任务目标。但没有任何这个目标的照片和具体描述,他只知道目标会在下午5点,出现在一个死气沉沉的小镇的餐厅里。那么餐厅里任何顾客都可能是这个杀手要杀的人,还有那个神秘的女招待(考尼什),就算她不是目标,也是一个足够威胁这项任务的存在,她甚至可能危害杀手的生命。
  
  该片也即将在#戛纳电影节#卖片。
  1. Video
  2. ID                                       : 1
  3. Format                                   : AVC
  4. Format/Info                              : Advanced Video Codec
  5. Format profile                           : [email protected]
  6. Format settings                          : CABAC / 5 Ref Frames
  7. Format settings, CABAC                   : Yes
  8. Format settings, Reference frames        : 5 frames
  9. Codec ID                                 : V_MPEG4/ISO/AVC
  10. Duration                                 : 1 h 49 min
  11. Bit rate                                 : 18.3 Mb/s
  12. Width                                    : 1 920 pixels
  13. Height                                   : 804 pixels
  14. Display aspect ratio                     : 2.40:1
  15. Frame rate mode                          : Constant
  16. Frame rate                               : 23.976 (24000/1001/189150) FPS
  17. Color space                              : YUV
  18. Chroma subsampling                       : 4:2:0
  19. Bit depth                                : 8 bits
  20. Scan type                                : Progressive
  21. Bits/(Pixel*Frame)                       : 0.495
  22. Stream size                              : 14.0 GiB (85%)
  23. Writing library                          : x264 core 157 r2938 2b00a84 [email protected] Mod
  24. Encoding settings                        : cabac=1 / ref=5 / deblock=1:-3:-3 / analyse=0x3:0x133 / me=umh / subme=10 / psy=1 / psy_rd=1.05:0.00 / mixed_ref=1 / me_range=32 / chroma_me=1 / trellis=2 / 8x8dct=1 / cqm=0 / deadzone=21,11 / fast_pskip=0 / chroma_qp_offset=-2 / threads=12 / lookahead_threads=2 / sliced_threads=0 / nr=0 / decimate=0 / interlaced=0 / bluray_compat=0 / constrained_intra=0 / bframes=8 / b_pyramid=2 / b_adapt=2 / b_bias=0 / direct=3 / weightb=1 / open_gop=0 / weightp=2 / keyint=250 / keyint_min=24 / scenecut=40 / intra_refresh=0 / rc_lookahead=250 / rc=crf / mbtree=0 / crf=16.8 / qcomp=0.60 / qpmin=0 / qpmax=69 / qpstep=4 / vbv_maxrate=62500 / vbv_bufsize=78125 / crf_max=0.0 / nal_hrd=none / filler=0 / ip_ratio=1.30 / pb_ratio=1.20 / aq=3:0.80
  25. Language                                 : English
  26. Default                                  : Yes
  27. Forced                                   : No
  28. Color range                              : Limited
  29. Color primaries                          : BT.709
  30. Matrix coefficients                      : BT.709
  31. Audio
  32. ID                                       : 2
  33. Format                                   : DTS XLL
  34. Format/Info                              : Digital Theater Systems
  35. Commercial name                          : DTS-HD Master Audio
  36. Codec ID                                 : A_DTS
  37. Duration                                 : 1 h 49 min
  38. Bit rate mode                            : Variable
  39. Bit rate                                 : 3 286 kb/s
  40. Channel(s)                               : 6 channels
  41. Channel layout                           : C L R Ls Rs LFE
  42. Sampling rate                            : 48.0 kHz
  43. Frame rate                               : 93.750 FPS (512 SPF)
  44. Bit depth                                : 24 bits
  45. Compression mode                         : Lossless
  46. Stream size                              : 2.52 GiB (15%)
  47. Language                                 : English
  48. Default                                  : Yes
  49. Forced                                   : No
  50. Text #1
  51. ID                                       : 3
  52. Format                                   : UTF-8
  53. Codec ID                                 : S_TEXT/UTF8
  54. Codec ID/Info                            : UTF-8 Plain Text
  55. Duration                                 : 1 h 42 min
  56. Bit rate                                 : 35 b/s
  57. Count of elements                        : 876
  58. Stream size                              : 26.4 KiB (0%)
  59. Title                                    : SRT
  60. Language                                 : English
  61. Default                                  : Yes
  62. Forced                                   : No
  63. Text #2
  64. ID                                       : 4
  65. Format                                   : PGS
  66. Muxing mode                              : zlib
  67. Codec ID                                 : S_HDMV/PGS
  68. Codec ID/Info                            : Picture based subtitle format used on BDs/HD-DVDs
  69. Duration                                 : 1 h 42 min
  70. Bit rate                                 : 22.3 kb/s
  71. Count of elements                        : 1764
  72. Stream size                              : 16.3 MiB (0%)
  73. Language                                 : English
  74. Default                                  : No
  75. Forced                                   : No
  76. Menu
  77. 00:00:00.000                             : Chapter 01
  78. 00:04:04.411                             : Chapter 02
  79. 00:09:55.220                             : Chapter 03
  80. 00:14:36.709                             : Chapter 04
  81. 00:23:39.918                             : Chapter 05
  82. 00:29:31.395                             : Chapter 06
  83. 00:37:21.156                             : Chapter 07
  84. 00:43:00.870                             : Chapter 08
  85. 00:51:23.956                             : Chapter 09
  86. 00:57:42.793                             : Chapter 10
  87. 01:04:54.641                             : Chapter 11
  88. 01:14:02.855                             : Chapter 12
  89. 01:19:25.678                             : Chapter 13
  90. 01:23:48.941                             : Chapter 14
  91. 01:29:17.018                             : Chapter 15
  92. 01:42:37.026                             : Chapter 16
复制代码






                                       
                                       

                                       
                                       
                                       




The.Virtuoso.2021.1080p.BluRay.x264.DTS-HD.MA.5.1-MT.zip (83.6 KB)
回复

使用道具 举报

蓝光币
3
发表于 2021-4-26 16:13:21 | 显示全部楼层

这个帖子不回对不起自己!我想我是一天也不能离开蓝光电影网。
回复 支持 反对

使用道具 举报

蓝光币
11
发表于 2021-4-26 20:38:39 | 显示全部楼层
我想我是一天也不能离开蓝光电影网。
回复 支持 反对

使用道具 举报

蓝光币
1185
发表于 2021-4-27 00:32:50 | 显示全部楼层
Thanks for sharing
回复 支持 反对

使用道具 举报

蓝光币
479
发表于 2021-4-28 11:45:27 | 显示全部楼层

这东西我收了!谢谢楼主!蓝光电影网真好!
回复 支持 反对

使用道具 举报

蓝光币
5
发表于 2021-4-28 22:21:28 | 显示全部楼层
楼主发贴辛苦了,谢谢楼主分享!我觉得蓝光电影网是注册对了!
回复 支持 反对

使用道具 举报

蓝光币
227
发表于 2021-4-29 15:48:42 | 显示全部楼层

蓝光电影网真好!

不错 感谢分享 蓝光电影网真好!
回复 支持 反对

使用道具 举报

蓝光币
0
发表于 2021-4-29 16:11:05 | 显示全部楼层

感谢楼主的无私分享!要想蓝光电影网好 就靠你我他
回复 支持 反对

使用道具 举报

蓝光币
30
发表于 2021-5-1 08:26:17 | 显示全部楼层
刚卖的片啊,牛逼普拉斯
回复 支持 反对

使用道具 举报

蓝光币
303
发表于 2021-5-2 00:05:31 | 显示全部楼层

楼主太厉害了!楼主,电影应该很好看我觉得蓝光电影网真是个好地方!
回复 支持 反对

使用道具 举报

懒得打字嘛,点击右侧快捷回复 【右侧内容,后台自定义】
您需要登录后才可以回帖 登录 | 立即加入

本版积分规则

小黑屋|蓝光电影网 |网站地图 

GMT+8, 2021-8-2 03:40 , Processed in 0.082253 second(s), 37 queries .

Powered by 蓝光电影网

Copyright © 2021,[蓝光电影网] 举报反馈邮箱:kf4k1080#hotmail.com(#[email protected])

免责声明:本站所有资源均收集自互联网,没有提供影片资源存储,也未参与录制、上传。若本站收录的资源涉及您的版权或知识产权或其他利益,请附上版权证明邮件告知,在收到邮件后24小时内删除。

快速回复 返回顶部 返回列表