蓝光电影网

 找回密码
 立即加入
搜索
查看: 141|回复: 2

[UHD.HEVC] 电锯惊魂9:漩涡/《电锯惊魂》重启版 Spiral.From.the.Book.of.Saw.2021.2160p.BluRay.REMUX.HEVC.DTS-HD.MA.TrueHD.7.1.Atmos-FGT 56.90GB

[复制链接]
蓝光币
159
发表于 2021-7-16 22:24:53 | 显示全部楼层 |阅读模式


◎译  名 电锯惊魂9:漩涡/《电锯惊魂》重启版/SAW: The Organ Donor/Spiral/The Organ Donor/新电锯惊魂/死亡漩涡:夺魂锯新游戏(台)/漩涡:恐惧斗室新游戏(港)/电锯惊魂9/电锯惊魂9:螺旋
◎片  名 Spiral: From the Book of Saw
◎年  代 2021
◎产  地 美国,加拿大
◎类  别 悬疑 / 惊悚 / 恐怖
◎语  言 英语
◎上映日期 2021-05-14(美国)
◎豆瓣评分 5.2/10 from 19573 users
◎豆瓣链接 https://movie.douban.com/subject/33450426/
◎片  长 93分钟
◎导  演 达伦·林恩·鲍斯曼 Darren Lynn Bousman
◎编  剧 乔什·斯托博格 Josh Stolberg / 皮特·古德芬格 Pete Goldfinger
◎主  演 克里斯·洛克 Chris Rock
       塞缪尔·杰克逊 Samuel L. Jackson
       麦克思·明格拉 Max Minghella
       马利索·妮可 Marisol Nichols
       摩根·大卫·琼斯 Morgan David Jones
       阿莉·约翰逊 Ali Johnson
       弗兰克·利卡里 Frank Licari
       约翰·托卡特利迪斯 John Tokatlidis
       佐伊·帕尔默 Zoie Palmer
       丹·皮特隆杰维奇 Dan Petronijevic
       理查德·泽皮里 Richard Zeppieri
       伊迪·英克斯特 Edie Inksetter
       莱拉·丽 Leila Leigh
       克里斯托弗·泰 Christopher Tai
       盖内尔·威廉姆斯 Genelle Williams
       莱昂尼达斯·卡斯特罗尼斯 Leonidas Castrounis
       克里斯·柯林斯 K.C. Collins
       纳齐恩·康特拉科特 Nazneen Contractor
       卢克·加洛 Luke Gallo
       乔什·斯托博格 Josh Stolberg
◎标  签 电锯惊魂 | 惊悚 | 血腥 | 恐怖 | 美国 | 犯罪 | 悬疑 | 2021
◎简  介


  老鸟警探(塞缪尔·杰克逊 Samuel L. Jackson 饰)带领警探(克里斯·洛克 Chris Rock 饰)调查惨绝人寰的连环杀警案,“拼图杀人魔”重出江湖的传言,再度勾起所有人心中的恐惧。这次新的游戏规则,似乎直冲警察而来。每个命案现场留下的“死亡漩涡”,将把他们卷进难以抽身的血腥深渊之中……
  
  《电锯惊魂》第九部由第8部的两位编剧皮特·古德芬格和乔什·斯托伯格撰写剧本。执导了《电锯惊魂234》的达伦·林恩·鲍斯曼此番回归执导。
  1. Video
  2. ID                                       : 1
  3. ID in the original source medium         : 4113 (0x1011)
  4. Format                                   : HEVC
  5. Format/Info                              : High Efficiency Video Coding
  6. Format profile                           : Main [email protected]@High
  7. HDR format                               : SMPTE ST 2086, HDR10 compatible
  8. Codec ID                                 : V_MPEGH/ISO/HEVC
  9. Duration                                 : 1 h 33 min
  10. Bit rate                                 : 76.5 Mb/s
  11. Width                                    : 3 840 pixels
  12. Height                                   : 2 160 pixels
  13. Display aspect ratio                     : 16:9
  14. Frame rate mode                          : Constant
  15. Frame rate                               : 23.976 (24000/1001/189150) FPS
  16. Color space                              : YUV
  17. Chroma subsampling                       : 4:2:0 (Type 2)
  18. Bit depth                                : 10 bits
  19. Bits/(Pixel*Frame)                       : 0.385
  20. Stream size                              : 49.7 GiB (87%)
  21. Language                                 : English
  22. Default                                  : No
  23. Forced                                   : No
  24. Color range                              : Limited
  25. Color primaries                          : BT.2020
  26. Transfer characteristics                 : PQ
  27. Matrix coefficients                      : BT.2020 non-constant
  28. Mastering display color primaries        : Display P3
  29. Mastering display luminance              : min: 0.0050 cd/m2, max: 1000 cd/m2
  30. Maximum Content Light Level              : 907 cd/m2
  31. Maximum Frame-Average Light Level        : 185 cd/m2
  32. Original source medium                   : Blu-ray
  33. Audio #1
  34. ID                                       : 2
  35. ID in the original source medium         : 4352 (0x1100)
  36. Format                                   : MLP FBA 16-ch
  37. Format/Info                              : Meridian Lossless Packing FBA with 16-channel presentation
  38. Commercial name                          : Dolby TrueHD with Dolby Atmos
  39. Codec ID                                 : A_TRUEHD
  40. Duration                                 : 1 h 33 min
  41. Bit rate mode                            : Variable
  42. Bit rate                                 : 4 299 kb/s
  43. Maximum bit rate                         : 9 057 kb/s
  44. Channel(s)                               : 8 channels
  45. Channel layout                           : L R C LFE Ls Rs Lb Rb
  46. Sampling rate                            : 48.0 kHz
  47. Frame rate                               : 1 200.000 FPS (40 SPF)
  48. Bit depth                                : 24 bits
  49. Compression mode                         : Lossless
  50. Stream size                              : 2.80 GiB (5%)
  51. Title                                    : TrueHD 7.1 Atmos
  52. Language                                 : English
  53. Default                                  : Yes
  54. Forced                                   : No
  55. Original source medium                   : Blu-ray
  56. Number of dynamic objects                : 11
  57. Bed channel count                        : 1 channel
  58. Bed channel configuration                : LFE
  59. Audio #2
  60. ID                                       : 3
  61. Format                                   : DTS XLL
  62. Format/Info                              : Digital Theater Systems
  63. Commercial name                          : DTS-HD Master Audio
  64. Codec ID                                 : A_DTS
  65. Duration                                 : 1 h 33 min
  66. Bit rate mode                            : Variable
  67. Bit rate                                 : 4 067 kb/s
  68. Channel(s)                               : 8 channels
  69. Channel layout                           : C L R LFE Lb Rb Lss Rss
  70. Sampling rate                            : 48.0 kHz
  71. Frame rate                               : 93.750 FPS (512 SPF)
  72. Bit depth                                : 24 bits
  73. Compression mode                         : Lossless
  74. Stream size                              : 2.65 GiB (5%)
  75. Title                                    : DTS-HD MA 7.1
  76. Language                                 : English
  77. Default                                  : No
  78. Forced                                   : No
  79. Audio #3
  80. ID                                       : 4
  81. ID in the original source medium         : 4352 (0x1100)
  82. Format                                   : AC-3
  83. Format/Info                              : Audio Coding 3
  84. Commercial name                          : Dolby Digital
  85. Format settings                          : Dolby Surround EX
  86. Codec ID                                 : A_AC3
  87. Duration                                 : 1 h 33 min
  88. Bit rate mode                            : Constant
  89. Bit rate                                 : 640 kb/s
  90. Channel(s)                               : 6 channels
  91. Channel layout                           : L R C LFE Ls Rs
  92. Sampling rate                            : 48.0 kHz
  93. Frame rate                               : 31.250 FPS (1536 SPF)
  94. Compression mode                         : Lossy
  95. Stream size                              : 426 MiB (1%)
  96. Title                                    : DD 5.1
  97. Language                                 : English
  98. Service kind                             : Complete Main
  99. Default                                  : No
  100. Forced                                   : No
  101. Original source medium                   : Blu-ray
  102. Audio #4
  103. ID                                       : 5
  104. ID in the original source medium         : 4353 (0x1101)
  105. Format                                   : AC-3
  106. Format/Info                              : Audio Coding 3
  107. Commercial name                          : Dolby Digital
  108. Codec ID                                 : A_AC3
  109. Duration                                 : 1 h 33 min
  110. Bit rate mode                            : Constant
  111. Bit rate                                 : 192 kb/s
  112. Channel(s)                               : 2 channels
  113. Channel layout                           : L R
  114. Sampling rate                            : 48.0 kHz
  115. Frame rate                               : 31.250 FPS (1536 SPF)
  116. Compression mode                         : Lossy
  117. Stream size                              : 128 MiB (0%)
  118. Title                                    : DD 2.0
  119. Language                                 : English
  120. Service kind                             : Complete Main
  121. Default                                  : No
  122. Forced                                   : No
  123. Original source medium                   : Blu-ray
  124. Audio #5
  125. ID                                       : 6
  126. ID in the original source medium         : 4354 (0x1102)
  127. Format                                   : AC-3
  128. Format/Info                              : Audio Coding 3
  129. Commercial name                          : Dolby Digital
  130. Codec ID                                 : A_AC3
  131. Duration                                 : 1 h 33 min
  132. Bit rate mode                            : Constant
  133. Bit rate                                 : 192 kb/s
  134. Channel(s)                               : 2 channels
  135. Channel layout                           : L R
  136. Sampling rate                            : 48.0 kHz
  137. Frame rate                               : 31.250 FPS (1536 SPF)
  138. Compression mode                         : Lossy
  139. Stream size                              : 128 MiB (0%)
  140. Title                                    : DD 2.0
  141. Language                                 : English
  142. Service kind                             : Complete Main
  143. Default                                  : No
  144. Forced                                   : No
  145. Original source medium                   : Blu-ray
  146. Audio #6
  147. ID                                       : 7
  148. ID in the original source medium         : 4355 (0x1103)
  149. Format                                   : AC-3
  150. Format/Info                              : Audio Coding 3
  151. Commercial name                          : Dolby Digital
  152. Codec ID                                 : A_AC3
  153. Duration                                 : 1 h 33 min
  154. Bit rate mode                            : Constant
  155. Bit rate                                 : 640 kb/s
  156. Channel(s)                               : 6 channels
  157. Channel layout                           : L R C LFE Ls Rs
  158. Sampling rate                            : 48.0 kHz
  159. Frame rate                               : 31.250 FPS (1536 SPF)
  160. Compression mode                         : Lossy
  161. Stream size                              : 426 MiB (1%)
  162. Title                                    : DD 5.1
  163. Language                                 : Spanish
  164. Service kind                             : Complete Main
  165. Default                                  : No
  166. Forced                                   : No
  167. Original source medium                   : Blu-ray
  168. Audio #7
  169. ID                                       : 8
  170. ID in the original source medium         : 4356 (0x1104)
  171. Format                                   : AC-3
  172. Format/Info                              : Audio Coding 3
  173. Commercial name                          : Dolby Digital
  174. Codec ID                                 : A_AC3
  175. Duration                                 : 1 h 33 min
  176. Bit rate mode                            : Constant
  177. Bit rate                                 : 192 kb/s
  178. Channel(s)                               : 2 channels
  179. Channel layout                           : L R
  180. Sampling rate                            : 48.0 kHz
  181. Frame rate                               : 31.250 FPS (1536 SPF)
  182. Compression mode                         : Lossy
  183. Stream size                              : 128 MiB (0%)
  184. Title                                    : DD 2.0
  185. Language                                 : English
  186. Service kind                             : Complete Main
  187. Default                                  : No
  188. Forced                                   : No
  189. Original source medium                   : Blu-ray
  190. Audio #8
  191. ID                                       : 9
  192. ID in the original source medium         : 4357 (0x1105)
  193. Format                                   : AC-3
  194. Format/Info                              : Audio Coding 3
  195. Commercial name                          : Dolby Digital
  196. Codec ID                                 : A_AC3
  197. Duration                                 : 1 h 33 min
  198. Bit rate mode                            : Constant
  199. Bit rate                                 : 640 kb/s
  200. Channel(s)                               : 6 channels
  201. Channel layout                           : L R C LFE Ls Rs
  202. Sampling rate                            : 48.0 kHz
  203. Frame rate                               : 31.250 FPS (1536 SPF)
  204. Compression mode                         : Lossy
  205. Stream size                              : 426 MiB (1%)
  206. Title                                    : DD 5.1
  207. Language                                 : French
  208. Service kind                             : Complete Main
  209. Default                                  : No
  210. Forced                                   : No
  211. Original source medium                   : Blu-ray
  212. Text #1
  213. ID                                       : 10
  214. Format                                   : UTF-8
  215. Codec ID                                 : S_TEXT/UTF8
  216. Codec ID/Info                            : UTF-8 Plain Text
  217. Duration                                 : 1 h 25 min
  218. Bit rate                                 : 59 b/s
  219. Count of elements                        : 1149
  220. Stream size                              : 37.2 KiB (0%)
  221. Title                                    : English-SRT
  222. Language                                 : English
  223. Default                                  : Yes
  224. Forced                                   : No
  225. Text #2
  226. ID                                       : 11
  227. ID in the original source medium         : 4768 (0x12A0)
  228. Format                                   : PGS
  229. Muxing mode                              : zlib
  230. Codec ID                                 : S_HDMV/PGS
  231. Codec ID/Info                            : Picture based subtitle format used on BDs/HD-DVDs
  232. Duration                                 : 1 h 25 min
  233. Bit rate                                 : 37.0 kb/s
  234. Count of elements                        : 2304
  235. Stream size                              : 22.7 MiB (0%)
  236. Title                                    : English-PGS
  237. Language                                 : English
  238. Default                                  : No
  239. Forced                                   : No
  240. Original source medium                   : Blu-ray
  241. Text #3
  242. ID                                       : 12
  243. ID in the original source medium         : 4769 (0x12A1)
  244. Format                                   : PGS
  245. Muxing mode                              : zlib
  246. Codec ID                                 : S_HDMV/PGS
  247. Codec ID/Info                            : Picture based subtitle format used on BDs/HD-DVDs
  248. Duration                                 : 1 h 26 min
  249. Bit rate                                 : 42.9 kb/s
  250. Count of elements                        : 2686
  251. Stream size                              : 26.5 MiB (0%)
  252. Title                                    : English-SDH-PGS
  253. Language                                 : English
  254. Default                                  : No
  255. Forced                                   : No
  256. Original source medium                   : Blu-ray
  257. Text #4
  258. ID                                       : 13
  259. ID in the original source medium         : 4770 (0x12A2)
  260. Format                                   : PGS
  261. Muxing mode                              : zlib
  262. Codec ID                                 : S_HDMV/PGS
  263. Codec ID/Info                            : Picture based subtitle format used on BDs/HD-DVDs
  264. Duration                                 : 1 h 25 min
  265. Bit rate                                 : 34.3 kb/s
  266. Count of elements                        : 2174
  267. Stream size                              : 21.0 MiB (0%)
  268. Title                                    : Spanish-PGS
  269. Language                                 : Spanish
  270. Default                                  : No
  271. Forced                                   : No
  272. Original source medium                   : Blu-ray
  273. Text #5
  274. ID                                       : 14
  275. ID in the original source medium         : 4770 (0x12A2)
  276. Format                                   : PGS
  277. Muxing mode                              : zlib
  278. Codec ID                                 : S_HDMV/PGS
  279. Codec ID/Info                            : Picture based subtitle format used on BDs/HD-DVDs
  280. Duration                                 : 1 h 9 min
  281. Bit rate                                 : 323 b/s
  282. Count of elements                        : 24
  283. Stream size                              : 164 KiB (0%)
  284. Title                                    : Spanish-FORCED-PGS
  285. Language                                 : Spanish
  286. Default                                  : No
  287. Forced                                   : No
  288. Original source medium                   : Blu-ray
  289. Text #6
  290. ID                                       : 15
  291. ID in the original source medium         : 4771 (0x12A3)
  292. Format                                   : PGS
  293. Muxing mode                              : zlib
  294. Codec ID                                 : S_HDMV/PGS
  295. Codec ID/Info                            : Picture based subtitle format used on BDs/HD-DVDs
  296. Duration                                 : 1 h 25 min
  297. Bit rate                                 : 27.7 kb/s
  298. Count of elements                        : 2332
  299. Stream size                              : 16.9 MiB (0%)
  300. Title                                    : French-PGS
  301. Language                                 : French
  302. Default                                  : No
  303. Forced                                   : No
  304. Original source medium                   : Blu-ray
  305. Text #7
  306. ID                                       : 16
  307. ID in the original source medium         : 4771 (0x12A3)
  308. Format                                   : PGS
  309. Muxing mode                              : zlib
  310. Codec ID                                 : S_HDMV/PGS
  311. Codec ID/Info                            : Picture based subtitle format used on BDs/HD-DVDs
  312. Duration                                 : 1 h 1 min
  313. Bit rate                                 : 426 b/s
  314. Count of elements                        : 20
  315. Stream size                              : 191 KiB (0%)
  316. Title                                    : French-FORCED-PGS
  317. Language                                 : French
  318. Default                                  : No
  319. Forced                                   : No
  320. Original source medium                   : Blu-ray
  321. Menu
  322. 00:00:00.000                             : Chapter 01
  323. 00:05:45.178                             : Chapter 02
  324. 00:11:25.101                             : Chapter 03
  325. 00:16:56.598                             : Chapter 04
  326. 00:23:20.190                             : Chapter 05
  327. 00:27:47.374                             : Chapter 06
  328. 00:34:08.171                             : Chapter 07
  329. 00:38:44.655                             : Chapter 08
  330. 00:45:15.170                             : Chapter 09
  331. 00:49:44.314                             : Chapter 10
  332. 00:55:25.488                             : Chapter 11
  333. 00:59:14.217                             : Chapter 12
  334. 01:06:47.086                             : Chapter 13
  335. 01:09:18.821                             : Chapter 14
  336. 01:15:18.722                             : Chapter 15
  337. 01:20:22.818                             : Chapter 16
复制代码




                                       
                                       

                                       
                                       
                                       




电锯惊魂9:漩涡/《电锯惊魂》重启版 Spiral.From.the.Book.of.Saw.2021.2160p.BluRay.REMUX.HEVC.DTS-HD.MA.TrueHD.7.1.Atmos-FGT 56.90GB

Spiral.From.the.Book.of.Saw.2021.2160p.BluRay.REMUX.HEVC.DTS-HD.MA.TrueHD.7.1.At.torrent

71.82 KB, 下载次数: 15, 下载积分: 蓝光币 -2

回复

使用道具 举报

蓝光币
831
发表于 2021-7-17 12:41:32 | 显示全部楼层
进来看看,哈哈哈,不错不错。
回复 支持 反对

使用道具 举报

蓝光币
3
发表于 2021-7-18 19:09:24 | 显示全部楼层

楼主,大恩不言谢了!蓝光电影网是最棒的!
回复 支持 反对

使用道具 举报

懒得打字嘛,点击右侧快捷回复 【右侧内容,后台自定义】
您需要登录后才可以回帖 登录 | 立即加入

本版积分规则

小黑屋|蓝光电影网 |网站地图 

GMT+8, 2021-8-2 03:23 , Processed in 0.085862 second(s), 37 queries .

Powered by 蓝光电影网

Copyright © 2021,[蓝光电影网] 举报反馈邮箱:kf4k1080#hotmail.com(#[email protected])

免责声明:本站所有资源均收集自互联网,没有提供影片资源存储,也未参与录制、上传。若本站收录的资源涉及您的版权或知识产权或其他利益,请附上版权证明邮件告知,在收到邮件后24小时内删除。

快速回复 返回顶部 返回列表