蓝光电影网

 找回密码
 立即加入
搜索
查看: 300|回复: 1

[2160p] 空中大灌篮:新传奇 Space.Jam.A.New.Legacy.2021.2160p.WEB.H265-FuckWarnerSpain 10.22GB

[复制链接]
蓝光币
159
发表于 2021-7-17 13:22:24 | 显示全部楼层 |阅读模式


◎译  名 空中大灌篮:新传奇/Space Jam 2: A Jogada Continua/Space Jam 2008/Space Jam Twenty 16/太空也入樽:改朝换代(港)/太空也入樽2(港)/宇宙大灌篮:新传承/宇宙大灌篮2/怪物奇兵 全新世代(台)/怪物奇兵2/空中大灌篮2:新传奇
◎片  名 Space Jam: A New Legacy
◎年  代 2021
◎产  地 美国
◎类  别 喜剧 / 动画 / 运动
◎语  言 英语
◎上映日期 2021-07-16(美国)
◎豆瓣评分 /10 from 0 users
◎豆瓣链接 https://movie.douban.com/subject/25834936/
◎片  长 120分钟
◎导  演 马尔科姆·D·李 Malcolm D. Lee
◎编  剧 朱埃尔·泰勒 Juel Taylor / 特伦斯·南斯 Terence Nance / 蒂莫西·哈里斯 Timothy Harris / 史蒂夫·鲁德尼克 Steve Rudnick / 赫舍尔·魏因格罗德 Herschel Weingrod / 莱奥·本韦努蒂 Leo Benvenuti / 阿尔弗雷多·博泰洛 Alfredo Botello / 安德鲁·道奇 Andrew Dodge / 查克·琼斯 Chuck Jones / 林诣彬 Justin Lin / 威利?埃伯索尔 Willie Ebersol / 基南·库格勒 Keenan Coogler
◎主  演 勒布朗·詹姆斯 LeBron James
       赞达亚 Zendaya
       吉姆·卡明斯 Jim Cummings
       索尼夸·马丁-格林 Sonequa Martin-Green
       唐·钱德尔 Don Cheadle
       弗雷德·塔特西奥 Fred Tatasciore
       特蕾丝·麦克尼尔 Tress MacNeille
       马丁·科勒巴 Martin Klebba
       加布里埃尔·伊格莱西亚斯 Gabriel Iglesias
       豪莎·罗克莫雷 Xosha Roquemore
       艾瑞克·鲍扎 Eric Bauza
       鲍伯·伯根 Bob Bergen
       杰夫·伯格曼 Jeff Bergman
       坎迪·米洛 Candi Milo
       克里斯·戴维斯 Khris Davis
       凯蒂·麦克凯布 Katie McCabe
       斯凯勒·拜布尔 Skyler Bible
       克里斯·保罗 Chris Paul
        Peter Cornell
       克莱·汤普森 Klay Thompson
       德雷蒙德·格林 Draymond Green
       Hassan Said Hassan Said
       Erin Flannery Erin Flannery
       德里克?吉尔伯特 Derrick Gilbert
       G·莱恩·希尔曼 G. Lane Hillman
       卡桑德拉·斯塔尔 Cassandra Starr
◎标  签 篮球 | 体育 | 动画 | 美国 | 运动 | 喜剧 | 2021 | 电影
◎简  介


  故事讲述勒布朗与他的小儿子多姆被人工智能困在了“华纳兄弟电影宇宙”虚拟空间,为了能安全回家,他必须率兔八哥、罗拉兔和那些不守规矩的乐一通卡通,战胜一支全明星篮球队。这场对决是勒布朗人生的最大挑战,也将重新定义他与儿子间的关系,并让勒布朗领悟到“做自己”的真谛;乐一通的小伙伴们则要打破陈规,超常发挥自己的独特技能,令勒布朗都刮目相看。然而他们面对的,是一群前所未见、所向披靡的人工智能强化型对手“末日狂徒队”,勒布朗和乐一通们真的能成功击败他们吗?
  1. Video
  2. ID                                       : 1
  3. Format                                   : HEVC
  4. Format/Info                              : High Efficiency Video Coding
  5. Format profile                           : Main [email protected]@High
  6. Codec ID                                 : V_MPEGH/ISO/HEVC
  7. Duration                                 : 1 h 55 min
  8. Bit rate                                 : 11.8 Mb/s
  9. Width                                    : 3 840 pixels
  10. Height                                   : 2 076 pixels
  11. Display aspect ratio                     : 1.85:1
  12. Frame rate mode                          : Constant
  13. Frame rate                               : 23.976 FPS
  14. Color space                              : YUV
  15. Chroma subsampling                       : 4:2:0
  16. Bit depth                                : 10 bits
  17. Bits/(Pixel*Frame)                       : 0.062
  18. Stream size                              : 9.49 GiB (94%)
  19. Language                                 : English
  20. Default                                  : Yes
  21. Forced                                   : No
  22. Color range                              : Limited
  23. Color primaries                          : BT.709
  24. Transfer characteristics                 : BT.709
  25. Matrix coefficients                      : BT.709

  26. Audio
  27. ID                                       : 2
  28. Format                                   : E-AC-3 JOC
  29. Format/Info                              : Enhanced AC-3 with Joint Object Coding
  30. Commercial name                          : Dolby Digital Plus with Dolby Atmos
  31. Codec ID                                 : A_EAC3
  32. Duration                                 : 1 h 55 min
  33. Bit rate mode                            : Constant
  34. Bit rate                                 : 768 kb/s
  35. Channel(s)                               : 6 channels
  36. Channel layout                           : L R C LFE Ls Rs
  37. Sampling rate                            : 48.0 kHz
  38. Frame rate                               : 31.250 FPS (1536 SPF)
  39. Compression mode                         : Lossy
  40. Stream size                              : 634 MiB (6%)
  41. Title                                    : English
  42. Language                                 : English
  43. Service kind                             : Complete Main
  44. Default                                  : Yes
  45. Forced                                   : No
  46. Complexity index                         : 16
  47. Number of dynamic objects                : 15
  48. Bed channel count                        : 1 channel
  49. Bed channel configuration                : LFE

  50. Text #1
  51. ID                                       : 3
  52. Format                                   : UTF-8
  53. Codec ID                                 : S_TEXT/UTF8
  54. Codec ID/Info                            : UTF-8 Plain Text
  55. Duration                                 : 1 h 55 min
  56. Bit rate                                 : 89 b/s
  57. Count of elements                        : 2655
  58. Stream size                              : 75.7 KiB (0%)
  59. Title                                    : English (SDH)
  60. Language                                 : English
  61. Default                                  : No
  62. Forced                                   : No

  63. Text #2
  64. ID                                       : 4
  65. Format                                   : UTF-8
  66. Codec ID                                 : S_TEXT/UTF8
  67. Codec ID/Info                            : UTF-8 Plain Text
  68. Duration                                 : 1 h 55 min
  69. Bit rate                                 : 53 b/s
  70. Count of elements                        : 1777
  71. Stream size                              : 44.9 KiB (0%)
  72. Title                                    : French
  73. Language                                 : French
  74. Default                                  : No
  75. Forced                                   : No

  76. Menu
  77. 00:00:00.000                             : :Scene 1
  78. 00:08:01.940                             : :Scene 2
  79. 00:14:27.826                             : :Scene 3
  80. 00:20:59.217                             : :Scene 4
  81. 00:25:46.588                             : :Scene 5
  82. 00:32:35.497                             : :Scene 6
  83. 00:39:24.948                             : :Scene 7
  84. 00:45:49.624                             : :Scene 8
  85. 00:55:20.320                             : :Scene 9
  86. 01:01:19.804                             : :Scene 10
  87. 01:08:37.701                             : :Scene 11
  88. 01:14:48.238                             : :Scene 12
  89. 01:21:28.596                             : :Scene 13
  90. 01:25:35.093                             : :Scene 14
  91. 01:31:58.226                             : :Scene 15
  92. 01:46:15.500                             : :Scene 16
复制代码




                                       
                                       

                                       
                                       
                                       




Space.Jam.A.New.Legacy.2021.2160p.WEB.H265-FuckWarnerSpain.torrent (13.6 KB)
回复

使用道具 举报

蓝光币
8
发表于 2021-7-18 23:53:59 | 显示全部楼层

楼主太厉害了!楼主,电影应该很好看我觉得蓝光电影网真是个好地方!
回复 支持 反对

使用道具 举报

懒得打字嘛,点击右侧快捷回复 【右侧内容,后台自定义】
您需要登录后才可以回帖 登录 | 立即加入

本版积分规则

小黑屋|蓝光电影网 |网站地图 

GMT+8, 2021-8-2 03:13 , Processed in 0.078118 second(s), 37 queries .

Powered by 蓝光电影网

Copyright © 2021,[蓝光电影网] 举报反馈邮箱:kf4k1080#hotmail.com(#[email protected])

免责声明:本站所有资源均收集自互联网,没有提供影片资源存储,也未参与录制、上传。若本站收录的资源涉及您的版权或知识产权或其他利益,请附上版权证明邮件告知,在收到邮件后24小时内删除。

快速回复 返回顶部 返回列表