蓝光电影网

 找回密码
 立即加入
搜索
查看: 539|回复: 12

[2160p] 空中大灌篮:新传奇 Space.Jam.a.New.Legacy.2021.2160p.HMAX.WEB-DL.DDP5.1.Atmos.DV.MP4.x265-FLUX 15.00GB

[复制链接]
蓝光币
159
发表于 2021-7-17 13:22:27 | 显示全部楼层 |阅读模式


◎译  名 空中大灌篮:新传奇/Space Jam 2: A Jogada Continua/Space Jam 2008/Space Jam Twenty 16/太空也入樽:改朝换代(港)/太空也入樽2(港)/宇宙大灌篮:新传承/宇宙大灌篮2/怪物奇兵 全新世代(台)/怪物奇兵2/空中大灌篮2:新传奇
◎片  名 Space Jam: A New Legacy
◎年  代 2021
◎产  地 美国
◎类  别 喜剧 / 动画 / 运动
◎语  言 英语
◎上映日期 2021-07-16(美国)
◎豆瓣评分 /10 from 0 users
◎豆瓣链接 https://movie.douban.com/subject/25834936/
◎片  长 120分钟
◎导  演 马尔科姆·D·李 Malcolm D. Lee
◎编  剧 朱埃尔·泰勒 Juel Taylor / 特伦斯·南斯 Terence Nance / 蒂莫西·哈里斯 Timothy Harris / 史蒂夫·鲁德尼克 Steve Rudnick / 赫舍尔·魏因格罗德 Herschel Weingrod / 莱奥·本韦努蒂 Leo Benvenuti / 阿尔弗雷多·博泰洛 Alfredo Botello / 安德鲁·道奇 Andrew Dodge / 查克·琼斯 Chuck Jones / 林诣彬 Justin Lin / 威利?埃伯索尔 Willie Ebersol / 基南·库格勒 Keenan Coogler
◎主  演 勒布朗·詹姆斯 LeBron James
       赞达亚 Zendaya
       吉姆·卡明斯 Jim Cummings
       索尼夸·马丁-格林 Sonequa Martin-Green
       唐·钱德尔 Don Cheadle
       弗雷德·塔特西奥 Fred Tatasciore
       特蕾丝·麦克尼尔 Tress MacNeille
       马丁·科勒巴 Martin Klebba
       加布里埃尔·伊格莱西亚斯 Gabriel Iglesias
       豪莎·罗克莫雷 Xosha Roquemore
       艾瑞克·鲍扎 Eric Bauza
       鲍伯·伯根 Bob Bergen
       杰夫·伯格曼 Jeff Bergman
       坎迪·米洛 Candi Milo
       克里斯·戴维斯 Khris Davis
       凯蒂·麦克凯布 Katie McCabe
       斯凯勒·拜布尔 Skyler Bible
       克里斯·保罗 Chris Paul
        Peter Cornell
       克莱·汤普森 Klay Thompson
       德雷蒙德·格林 Draymond Green
       Hassan Said Hassan Said
       Erin Flannery Erin Flannery
       德里克?吉尔伯特 Derrick Gilbert
       G·莱恩·希尔曼 G. Lane Hillman
       卡桑德拉·斯塔尔 Cassandra Starr
◎标  签 篮球 | 体育 | 动画 | 美国 | 运动 | 喜剧 | 2021 | 电影
◎简  介


  故事讲述勒布朗与他的小儿子多姆被人工智能困在了“华纳兄弟电影宇宙”虚拟空间,为了能安全回家,他必须率兔八哥、罗拉兔和那些不守规矩的乐一通卡通,战胜一支全明星篮球队。这场对决是勒布朗人生的最大挑战,也将重新定义他与儿子间的关系,并让勒布朗领悟到“做自己”的真谛;乐一通的小伙伴们则要打破陈规,超常发挥自己的独特技能,令勒布朗都刮目相看。然而他们面对的,是一群前所未见、所向披靡的人工智能强化型对手“末日狂徒队”,勒布朗和乐一通们真的能成功击败他们吗?
  1. Video
  2. ID                                       : 1
  3. Format                                   : HEVC
  4. Format/Info                              : High Efficiency Video Coding
  5. Format profile                           : Main [email protected]@Main
  6. HDR format                               : Dolby Vision, Version 1.0, dvhe.05.06, BL+RPU
  7. Codec ID                                 : dvhe
  8. Codec ID/Info                            : High Efficiency Video Coding with Dolby Vision
  9. Duration                                 : 1 h 55 min
  10. Bit rate                                 : 17.8 Mb/s
  11. Width                                    : 3 840 pixels
  12. Height                                   : 2 160 pixels
  13. Display aspect ratio                     : 16:9
  14. Frame rate mode                          : Constant
  15. Frame rate                               : 23.976 (24000/1001/189150) FPS
  16. Color space                              : YUV
  17. Chroma subsampling                       : 4:2:0
  18. Bit depth                                : 10 bits
  19. Bits/(Pixel*Frame)                       : 0.090
  20. Stream size                              : 14.4 GiB (96%)
  21. Writing library                          : x265 3.4hy:[Linux][GCC 7.5.0][64 bit] 10bit
  22. Encoding settings                        : cpuid=1111039 / frame-threads=6 / no-wpp / no-pmode / no-pme / no-psnr / no-ssim / log-level=2 / input-csp=1 / input-res=3840x2160 / interlace=0 / total-frames=0 / level-idc=0 / high-tier=1 / uhd-bd=0 / ref=4 / no-allow-non-conformance / repeat-headers / annexb / aud / hrd / info / hash=0 / no-temporal-layers / no-open-gop / min-keyint=96 / keyint=96 / gop-lookahead=0 / bframes=4 / b-adapt=2 / b-pyramid / bframe-bias=0 / rc-lookahead=25 / lookahead-slices=4 / scenecut=40 / hist-scenecut=0 / radl=0 / no-splice / no-intra-refresh / ctu=64 / min-cu-size=8 / rect / no-amp / max-tu-size=32 / tu-inter-depth=1 / tu-intra-depth=1 / limit-tu=0 / rdoq-level=2 / dynamic-rd=0.00 / no-ssim-rd / signhide / no-tskip / nr-intra=0 / nr-inter=0 / no-constrained-intra / strong-intra-smoothing / max-merge=3 / limit-refs=3 / limit-modes / me=3 / subme=3 / merange=57 / temporal-mvp / no-frame-dup / no-hme / weightp / no-weightb / no-analyze-src-pics / deblock=0:0 / sao / no-sao-non-deblock / rd=4 / selective-sao=4 / no-early-skip / rskip / no-fast-intra / no-tskip-fast / no-cu-lossless / no-b-intra / no-splitrd-skip / rdpenalty=0 / psy-rd=2.00 / psy-rdoq=1.00 / no-rd-refine / no-lossless / cbqpoffs=0 / crqpoffs=3 / rc=abr / bitrate=18000 / qcomp=0.60 / qpstep=4 / stats-write=0 / stats-read=2 / cplxblur=20.0 / qblur=0.5 / vbv-maxrate=24500 / vbv-bufsize=24500 / vbv-init=0.6 / vbv-end=0.6 / vbv-end-fr-adj=0.0 / ipratio=1.40 / pbratio=1.30 / aq-mode=2 / aq-strength=1.00 / cutree / zone-count=0 / no-strict-cbr / qg-size=32 / no-rc-grain / qpmax=69 / qpmin=0 / no-const-vbv / sar=1 / overscan=0 / videoformat=5 / range=1 / colorprim=2 / transfer=2 / colormatrix=2 / chromaloc=0 / display-window=0 / cll=0,0 / min-luma=0 / max-luma=1023 / log2-max-poc-lsb=8 / vui-timing-info / vui-hrd-info / no-concatenation / slices=1 / no-opt-qp-pps / no-opt-ref-list-length-pps / no-multi-pass-opt-rps / scenecut-bias=0.05 / hist-threshold=0.01 / no-opt-cu-delta-qp / no-aq-motion / no-hdr10 / no-hdr10-opt / no-dhdr10-opt / no-idr-recovery-sei / analysis-reuse-level=0 / analysis-save-reuse-level=0 / analysis-load-reuse-level=0 / scale-factor=0 / refine-intra=0 / refine-inter=0 / refine-mv=1 / refine-ctu-distortion=0 / no-limit-sao / ctu-info=0 / no-lowpass-dct / refine-analysis-type=0 / copy-pic=1 / max-ausize-factor=1.0 / no-dynamic-refine / no-single-sei / no-hevc-aq / no-svt / no-field / qp-adaptation-range=1.00 / no-scenecut-aware-qpconformance-window-offsets / right=0 / bottom=0 / decoder-max-rate=0
  23. Default                                  : Yes
  24. Alternate group                          : 1
  25. Encoded date                             : UTC 2021-07-16 07:04:56
  26. Tagged date                              : UTC 2021-07-16 07:09:11
  27. Color range                              : Full
  28. Codec configuration box                  : hvcC+dvcC

  29. Audio
  30. ID                                       : 2
  31. Format                                   : E-AC-3 JOC
  32. Format/Info                              : Enhanced AC-3 with Joint Object Coding
  33. Commercial name                          : Dolby Digital Plus with Dolby Atmos
  34. Codec ID                                 : ec-3
  35. Duration                                 : 1 h 55 min
  36. Bit rate mode                            : Constant
  37. Bit rate                                 : 768 kb/s
  38. Maximum bit rate                         : 811 kb/s
  39. Channel(s)                               : 6 channels
  40. Channel layout                           : L R C LFE Ls Rs
  41. Sampling rate                            : 48.0 kHz
  42. Frame rate                               : 31.250 FPS (1536 SPF)
  43. Compression mode                         : Lossy
  44. Stream size                              : 634 MiB (4%)
  45. Title                                    : English
  46. Language                                 : English
  47. Service kind                             : Complete Main
  48. Encoded date                             : UTC 2021-07-16 07:09:10
  49. Tagged date                              : UTC 2021-07-16 07:09:11
  50. Complexity index                         : Not present / 16
  51. Number of dynamic objects                : 15
  52. Bed channel count                        : 1 channel
  53. Bed channel configuration                : LFE

  54. Text
  55. ID                                       : 3
  56. Format                                   : Timed Text
  57. Codec ID                                 : tx3g
  58. Duration                                 : 1 h 55 min
  59. Bit rate mode                            : Variable
  60. Bit rate                                 : 114 b/s
  61. Stream size                              : 96.5 KiB (0%)
  62. Title                                    : English
  63. Language                                 : English
  64. Forced                                   : No
  65. Encoded date                             : UTC 2021-07-16 07:09:10
  66. Tagged date                              : UTC 2021-07-16 07:09:11
复制代码




                                       
                                       

                                       
                                       
                                       




Space.Jam.a.New.Legacy.2021.2160p.HMAX.WEB-DL.DDP5.1.Atmos.DV.MP4.x265-FLUX.torrent (19.43 KB)
回复

使用道具 举报

蓝光币
3
发表于 2021-7-17 13:48:44 | 显示全部楼层

楼主太厉害了!楼主,电影应该很好看我觉得蓝光电影网真是个好地方!
回复 支持 反对

使用道具 举报

蓝光币
28
发表于 2021-7-17 14:10:36 | 显示全部楼层
感谢分享……
回复

使用道具 举报

蓝光币
1142
发表于 2021-7-17 15:02:29 | 显示全部楼层

感谢分享……
回复

使用道具 举报

蓝光币
1271
发表于 2021-7-17 17:41:50 | 显示全部楼层
楼主发贴辛苦了,谢谢楼主分享!我觉得蓝光电影网是注册对了!
回复 支持 反对

使用道具 举报

蓝光币
30
发表于 2021-7-18 09:58:00 | 显示全部楼层

其实我一直觉得楼主的品味不错!呵呵!蓝光电影网太棒了!
回复 支持 反对

使用道具 举报

蓝光币
5
发表于 2021-7-18 17:51:44 | 显示全部楼层

既然你诚信诚意的推荐了,那我就勉为其难的看看吧!蓝光电影网不走平凡路。
回复 支持 反对

使用道具 举报

蓝光币
5
发表于 2021-7-18 17:52:46 | 显示全部楼层

既然你诚信诚意的推荐了,那我就勉为其难的看看吧!蓝光电影网不走平凡路。
回复 支持 反对

使用道具 举报

蓝光币
1
发表于 2021-7-18 19:49:09 | 显示全部楼层
太牛了   有这电影的资源
回复 支持 反对

使用道具 举报

蓝光币
1
发表于 2021-7-18 20:07:17 | 显示全部楼层
空中大灌篮:新传奇,支持LBJ!
回复 支持 反对

使用道具 举报

懒得打字嘛,点击右侧快捷回复 【右侧内容,后台自定义】
您需要登录后才可以回帖 登录 | 立即加入

本版积分规则

小黑屋|蓝光电影网 |网站地图 

GMT+8, 2021-8-2 05:12 , Processed in 0.085539 second(s), 37 queries .

Powered by 蓝光电影网

Copyright © 2021,[蓝光电影网] 举报反馈邮箱:kf4k1080#hotmail.com(#[email protected])

免责声明:本站所有资源均收集自互联网,没有提供影片资源存储,也未参与录制、上传。若本站收录的资源涉及您的版权或知识产权或其他利益,请附上版权证明邮件告知,在收到邮件后24小时内删除。

快速回复 返回顶部 返回列表