蓝光电影网

 找回密码
 立即加入
搜索
查看: 399|回复: 4

[2160p] 人类清除计划5/人类清除计划:自由永恒 The.Forever.Purge.2021.2160p.WEB-DL.x265.10bit.HDR.DD5.1-NOGRP 17.00GB

[复制链接]
蓝光币
159
发表于 2021-7-19 00:29:17 | 显示全部楼层 |阅读模式


◎译  名 人类清除计划5/人类清除计划:自由永恒/人类清除计划完结篇/国定杀戮日:无限狂屠(港)
◎片  名 The Forever Purge
◎年  代 2021
◎产  地 美国
◎类  别 科幻 / 惊悚 / 犯罪
◎语  言 英语
◎上映日期 2021-07-02(美国)
◎豆瓣评分 6.8/10 from 146 users
◎豆瓣链接 https://movie.douban.com/subject/33446014/
◎片  长 103分钟
◎导  演 埃弗拉多·瓦莱里奥·古特 Everardo Valerio Gout
◎编  剧 詹姆斯·德莫纳克 James DeMonaco
◎主  演 安娜·德拉·雷古拉 Ana de la Reguera
       特诺切·韦尔塔 Tenoch Huerta
       乔什·卢卡斯 Josh Lucas
       卡西迪·弗里曼 Cassidy Freeman
       莱文·兰宾 Leven Rambin
       亚历杭德罗·埃达 Alejandro Edda
       威尔·帕顿 Will Patton
       格雷戈里·萨拉戈萨 Gregory Zaragoza
       萨米·罗蒂比 Sammi Rotibi
       威尔·布里顿 Will Brittain
       加里·诺希利 Gary Nohealii
        Joe Williams
       拉桑德拉·吉布森 LaSaundra Gibson
       霍普·劳伦 Hope Lauren
       科达·贝泽尔 Coda Boesel
       肖·琼斯 Shaw Jones
       乔治·杜威 Jeffrey Doornbos
       维罗尼卡·法尔孔 Veronica Falcón
       马克·克雷尼克 Mark Krenik
       苏西·阿布罗梅特 Susie Abromeit
       安东尼·莫利纳利 Anthony Molinari
       斯科特·道格拉斯麦·克拉克伦 Scott MacLachlan
◎标  签 惊悚 | 恐怖 | 美国 | 动作 | 美国电影 | 科幻 | 2021 | 黑色幽默
◎简  介


  故事紧接《人类清除计划3》。从贩毒集团手中脱逃的阿德拉与丈夫胡安自墨西哥来到美国得克萨斯州生活,后者在塔克家族的牧场工作。胡安深受塔克一家的族长,凯莱布的赏识,但这也让凯莱布之子迪伦心生妒忌。但在一年一度的“人类清除计划”过后的早上,一支地下组织意图将杀戮继续进行下去,让全美陷入狂乱之中。包括迪伦妻子和妹妹在内的塔克一家也遭受波及,迫使众人联合起来对付暴徒,并设法逃入开放边境仅有六小时的墨西哥。
  1. Video
  2. ID                                       : 1
  3. Format                                   : HEVC
  4. Format/Info                              : High Efficiency Video Coding
  5. Format profile                           : Main [email protected]@High
  6. HDR format                               : SMPTE ST 2086, HDR10 compatible
  7. Codec ID                                 : V_MPEGH/ISO/HEVC
  8. Duration                                 : 1 h 43 min
  9. Bit rate                                 : 23.1 Mb/s
  10. Width                                    : 3 840 pixels
  11. Height                                   : 2 078 pixels
  12. Display aspect ratio                     : 1.85:1
  13. Frame rate mode                          : Constant
  14. Frame rate                               : 23.976 FPS
  15. Color space                              : YUV
  16. Chroma subsampling                       : 4:2:0 (Type 2)
  17. Bit depth                                : 10 bits
  18. Bits/(Pixel*Frame)                       : 0.121
  19. Stream size                              : 16.7 GiB (98%)
  20. Default                                  : Yes
  21. Forced                                   : No
  22. Color range                              : Limited
  23. Color primaries                          : BT.2020
  24. Transfer characteristics                 : PQ
  25. Matrix coefficients                      : BT.2020 non-constant
  26. Mastering display color primaries        : Display P3
  27. Mastering display luminance              : min: 0.0050 cd/m2, max: 1000 cd/m2
  28. Maximum Content Light Level              : 1049 cd/m2
  29. Maximum Frame-Average Light Level        : 500 cd/m2
  30. Audio
  31. ID                                       : 2
  32. Format                                   : AC-3
  33. Format/Info                              : Audio Coding 3
  34. Commercial name                          : Dolby Digital
  35. Codec ID                                 : A_AC3
  36. Duration                                 : 1 h 43 min
  37. Bit rate mode                            : Constant
  38. Bit rate                                 : 384 kb/s
  39. Channel(s)                               : 6 channels
  40. Channel layout                           : L R C LFE Ls Rs
  41. Sampling rate                            : 48.0 kHz
  42. Frame rate                               : 31.250 FPS (1536 SPF)
  43. Compression mode                         : Lossy
  44. Stream size                              : 284 MiB (2%)
  45. Title                                    : English
  46. Language                                 : English
  47. Service kind                             : Complete Main
  48. Default                                  : Yes
  49. Forced                                   : No
  50. Text #1
  51. ID                                       : 3
  52. Format                                   : UTF-8
  53. Codec ID                                 : S_TEXT/UTF8
  54. Codec ID/Info                            : UTF-8 Plain Text
  55. Duration                                 : 1 h 30 min
  56. Bit rate                                 : 2 b/s
  57. Count of elements                        : 78
  58. Stream size                              : 1.78 KiB (0%)
  59. Title                                    : English [Forced]
  60. Language                                 : English
  61. Default                                  : No
  62. Forced                                   : Yes
  63. Text #2
  64. ID                                       : 4
  65. Format                                   : UTF-8
  66. Codec ID                                 : S_TEXT/UTF8
  67. Codec ID/Info                            : UTF-8 Plain Text
  68. Duration                                 : 1 h 43 min
  69. Bit rate                                 : 64 b/s
  70. Count of elements                        : 1770
  71. Stream size                              : 48.7 KiB (0%)
  72. Title                                    : English [Full]
  73. Language                                 : English
  74. Default                                  : No
  75. Forced                                   : No
  76. Menu
  77. 00:00:00.000                             : Scene 1
  78. 00:04:59.966                             : Scene 2
  79. 00:11:22.766                             : Scene 3
  80. 00:18:09.464                             : Scene 4
  81. 00:23:43.173                             : Scene 5
  82. 00:29:00.407                             : Scene 6
  83. 00:36:27.604                             : Scene 7
  84. 00:42:38.183                             : Scene 8
  85. 00:45:31.147                             : Scene 9
  86. 00:52:23.852                             : Scene 10
  87. 01:00:30.588                             : Scene 11
  88. 01:05:46.321                             : Scene 12
  89. 01:12:46.783                             : Scene 13
  90. 01:18:10.023                             : Scene 14
  91. 01:25:18.660                             : Scene 15
  92. 01:32:07.902                             : Scene 16
复制代码





                                       
                                       

                                       
                                       
                                       




The.Forever.Purge.2021.2160p.WEB-DL.x265.10bit.HDR.DD5.1-NOGRP.torrent (21.91 KB)
回复

使用道具 举报

蓝光币
598
发表于 2021-7-19 07:51:10 | 显示全部楼层

~ 珍惜+支持 ~
回复

使用道具 举报

蓝光币
343
发表于 2021-7-19 13:16:01 | 显示全部楼层

这个帖子不回对不起自己!我想我是一天也不能离开蓝光电影网。
回复 支持 反对

使用道具 举报

蓝光币
4
发表于 2021-7-24 12:24:51 | 显示全部楼层
楼主发贴辛苦了,谢谢楼主分享!我觉得蓝光电影网是注册对了!
回复 支持 反对

使用道具 举报

蓝光币
0
发表于 7 天前 | 显示全部楼层
下载了 但是现在包里没有中文字幕怎么办呢?
回复 支持 反对

使用道具 举报

懒得打字嘛,点击右侧快捷回复 【右侧内容,后台自定义】
您需要登录后才可以回帖 登录 | 立即加入

本版积分规则

小黑屋|蓝光电影网 |网站地图 

GMT+8, 2021-8-2 05:20 , Processed in 0.078090 second(s), 37 queries .

Powered by 蓝光电影网

Copyright © 2021,[蓝光电影网] 举报反馈邮箱:kf4k1080#hotmail.com(#[email protected])

免责声明:本站所有资源均收集自互联网,没有提供影片资源存储,也未参与录制、上传。若本站收录的资源涉及您的版权或知识产权或其他利益,请附上版权证明邮件告知,在收到邮件后24小时内删除。

快速回复 返回顶部 返回列表