蓝光电影网

 找回密码
 立即加入
搜索
查看: 136|回复: 0

[2160p] 街头飙车王 Charm.City.Kings.2020.2160p.WEB-DL.x265.10bit.HDR.DD5.1-ROCCaT 12.77GB

[复制链接]
蓝光币
159
发表于 2021-7-19 18:04:09 | 显示全部楼层 |阅读模式


◎译  名 街头飙车王/Twelve
◎片  名 Charm City Kings
◎年  代 2020
◎产  地 美国
◎类  别 剧情
◎语  言 英语
◎上映日期 2020-01-27(圣丹斯电影节) / 2020-10-08(美国)
◎豆瓣评分 /10 from 0 users
◎豆瓣链接 https://movie.douban.com/subject/34907391/
◎导  演 安杰尔·曼纽尔·索托 Angel Manuel Soto
◎编  剧 巴里·詹金斯 Barry Jenkins
◎主  演 贾西·迪阿洛·温斯顿 Jahi Di'Allo Winston
       泰柔娜·派丽丝 Teyonah Parris
       米克·米尔 Meek Mill
       珍妮特·摩丝 Jeanette Maus
       米兰·雷 Milan Ray
◎标  签 犯罪 | 剧情 | 黑帮 | 美国电影 | 2020 | (电脑) | (2020) | 美(加)国电影
◎简  介


  缪斯迫切希望加入臭名昭著的巴尔的摩越野车骑士The Midnight Clique,他们统治着夏季街头。 当午夜的领袖布拉克斯将14岁的缪斯带到他身边时,缪斯很快就发现自己在狭窄的道路和充斥着快速的金钱和暴力的道路之间挣扎。
◎获奖情况
  第36届圣丹斯电影节 ?(2020)
  评审团大奖剧情片(提名) 安杰尔·曼纽尔·索托
  1. Video
  2. ID                                       : 1
  3. Format                                   : HEVC
  4. Format/Info                              : High Efficiency Video Coding
  5. Format profile                           : Main [email protected]@High
  6. HDR format                               : SMPTE ST 2086, HDR10 compatible
  7. Codec ID                                 : V_MPEGH/ISO/HEVC
  8. Duration                                 : 2 h 3 min
  9. Bit rate                                 : 14.5 Mb/s
  10. Width                                    : 3 836 pixels
  11. Height                                   : 1 920 pixels
  12. Display aspect ratio                     : 1.998
  13. Frame rate mode                          : Constant
  14. Frame rate                               : 23.976 (24000/1001/189150) FPS
  15. Color space                              : YUV
  16. Chroma subsampling                       : 4:2:0 (Type 2)
  17. Bit depth                                : 10 bits
  18. Bits/(Pixel*Frame)                       : 0.082
  19. Stream size                              : 12.4 GiB (97%)
  20. Language                                 : English
  21. Default                                  : Yes
  22. Forced                                   : No
  23. Color range                              : Limited
  24. Color primaries                          : BT.2020
  25. Transfer characteristics                 : PQ
  26. Matrix coefficients                      : BT.2020 non-constant
  27. Mastering display color primaries        : BT.2020
  28. Mastering display luminance              : min: 0.0050 cd/m2, max: 1000 cd/m2
  29. Maximum Content Light Level              : 7858 cd/m2
  30. Maximum Frame-Average Light Level        : 600 cd/m2

  31. Audio
  32. ID                                       : 2
  33. Format                                   : AC-3
  34. Format/Info                              : Audio Coding 3
  35. Commercial name                          : Dolby Digital
  36. Codec ID                                 : A_AC3
  37. Duration                                 : 2 h 3 min
  38. Bit rate mode                            : Constant
  39. Bit rate                                 : 384 kb/s
  40. Channel(s)                               : 6 channels
  41. Channel layout                           : L R C LFE Ls Rs
  42. Sampling rate                            : 48.0 kHz
  43. Frame rate                               : 31.250 FPS (1536 SPF)
  44. Compression mode                         : Lossy
  45. Stream size                              : 338 MiB (3%)
  46. Language                                 : English
  47. Service kind                             : Complete Main
  48. Default                                  : Yes
  49. Forced                                   : No

  50. Text
  51. ID                                       : 3
  52. Format                                   : UTF-8
  53. Codec ID                                 : S_TEXT/UTF8
  54. Codec ID/Info                            : UTF-8 Plain Text
  55. Duration                                 : 2 h 0 min
  56. Bit rate                                 : 71 b/s
  57. Count of elements                        : 2028
  58. Stream size                              : 63.3 KiB (0%)
  59. Title                                    : (SDH)
  60. Language                                 : English
  61. Default                                  : No
  62. Forced                                   : No
复制代码




                                       
                                       

                                       
                                       
                                       




Charm.City.Kings.2020.2160p.WEB-DL.x265.10bit.HDR.DD5.1-ROCCaT.torrent (16.61 KB)
回复

使用道具 举报

懒得打字嘛,点击右侧快捷回复 【右侧内容,后台自定义】
您需要登录后才可以回帖 登录 | 立即加入

本版积分规则

小黑屋|蓝光电影网 |网站地图 

GMT+8, 2021-8-2 04:05 , Processed in 0.075417 second(s), 37 queries .

Powered by 蓝光电影网

Copyright © 2021,[蓝光电影网] 举报反馈邮箱:kf4k1080#hotmail.com(#[email protected])

免责声明:本站所有资源均收集自互联网,没有提供影片资源存储,也未参与录制、上传。若本站收录的资源涉及您的版权或知识产权或其他利益,请附上版权证明邮件告知,在收到邮件后24小时内删除。

快速回复 返回顶部 返回列表