蓝光电影网

 找回密码
 立即加入
搜索
查看: 136|回复: 0

[2160p] 乱 Ran.1985.JAPANESE.2160p.BluRay.x265.10bit.SDR.DTS-HD.MA.5.1-SWTYBLZ 61.03GB

[复制链接]
蓝光币
159
发表于 2021-7-19 18:04:13 | 显示全部楼层 |阅读模式


◎译  名 Ran/Revolt/乱日本战国时代
◎片  名 乱
◎年  代 1985
◎产  地 日本,法国
◎类  别 剧情 / 动作
◎语  言 日语
◎上映日期 1985-06-01(日本)
◎豆瓣评分 8.9/10 from 68934 users
◎豆瓣链接 https://movie.douban.com/subject/1296196/
◎片  长 162分钟
◎导  演 黑泽明 Akira Kurosawa
◎编  剧 黑泽明 Akira Kurosawa / 小国英雄 Hideo Oguni / 井手雅人 Masato Ide / 威廉·莎士比亚 William Shakespeare
◎主  演 仲代达矢 Tatsuya Nakadai
       寺尾聪 Akira Terao
       根津甚八 Jinpachi Nezu
       隆大介 Daisuke Ry?
       原田美枝子 Mieko Harada
       宫崎美子 Yoshiko Miyazaki
       井川比佐志 Hisashi Igawa
       池畑慎之介 P?ta
       油井昌由树 Masayuki Yui
       加藤和夫 Kazuo Kat?
       松井范雄 Norio Matsui
       伊藤敏八 Toshiya Ito
       儿玉谦次 Kenji Kodama
       野村万斋 Mansai Nomura
       加藤武 Takeshi Kat?
       田崎润 Jun Tazaki
       植木等 Hitoshi Ueki
       头师孝雄 Takao Zushi
       头师佳孝 Yoshitaka Zushi
       天田益男 Masuo Amada
       木村荣 Sakae Kimura
       日比游一 Yuichi Hibi
       加藤精三 Seiz? Kat?
       南條玲子 Reiko Nanjo
       音羽久米子 Kumeko Otowa
       寺岛进 Susumu Terajima
       东乡晴子 Haruko Togo
       渡边哲 Tetsu Watanabe
       宫坂广 Hiroshi Miyasaka
       本多猪四郎  Ishir? Honda
◎标  签 日本 | 战争 | 经典 | 历史 | 武士 | 人性 | 1985 | 剧情
◎简  介


  一文字秀虎(仲代达矢饰)征战多年,手段残忍。在七十岁时,秀虎准备将家业一分为三,由三个儿子分掌大权。他把太郎孝虎(寺尾聪饰)、次郎正虎(根津甚八饰)、三郎直虎(隆大介饰)叫到跟前,以“支箭会断,砚支箭折不断”喻语告诫三兄弟,嘱咐他们要休戚与共。三郎当场把三支箭横在膝上折断,以抗议父亲枉经乱世,而不知人情。秀虎大怒,将三郎驱逐出境。三郎遂到邻国入赘为婿。
  
  而之后一文字家果然被三郎言中,背信弃义的告诫果然成真,父子及兄弟间的纷乱开始,迎接他们的将是什么命运?
◎获奖情况
  第58届奥斯卡金像奖 ?(1986)
  最佳导演(提名) 黑泽明
  最佳摄影(提名) 中井朝一?/?斋藤孝雄?/?上田正治
  最佳艺术指导(提名) 村木忍?/?村木与四郎
  最佳服装设计 和田惠美
  1. Video
  2. ID                                       : 1
  3. Format                                   : HEVC
  4. Format/Info                              : High Efficiency Video Coding
  5. Format profile                           : Main [email protected]@High
  6. Codec ID                                 : V_MPEGH/ISO/HEVC
  7. Duration                                 : 2 h 40 min
  8. Bit rate                                 : 45.1 Mb/s
  9. Width                                    : 3 840 pixels
  10. Height                                   : 2 076 pixels
  11. Display aspect ratio                     : 1.85:1
  12. Frame rate mode                          : Constant
  13. Frame rate                               : 24.000 FPS
  14. Color space                              : YUV
  15. Chroma subsampling                       : 4:2:0
  16. Bit depth                                : 10 bits
  17. Bits/(Pixel*Frame)                       : 0.236
  18. Stream size                              : 50.5 GiB (83%)
  19. Writing library                          : x265 3.0ed72af837053:[Windows][GCC 8.2.0][64 bit] 10bit
  20. Encoding settings                        : cpuid=1111039 / frame-threads=6 / numa-pools=40 / wpp / no-pmode / no-pme / no-psnr / no-ssim / log-level=2 / input-csp=1 / input-res=3840x2076 / interlace=0 / total-frames=231212 / level-idc=51 / high-tier=1 / uhd-bd=0 / ref=3 / no-allow-non-conformance / repeat-headers / annexb / aud / hrd / info / hash=0 / no-temporal-layers / no-open-gop / min-keyint=1 / keyint=24 / gop-lookahead=0 / bframes=4 / b-adapt=2 / b-pyramid / bframe-bias=0 / rc-lookahead=25 / lookahead-slices=4 / scenecut=40 / radl=0 / no-splice / no-intra-refresh / ctu=64 / min-cu-size=8 / no-rect / no-amp / max-tu-size=32 / tu-inter-depth=1 / tu-intra-depth=1 / limit-tu=0 / rdoq-level=0 / dynamic-rd=0.00 / no-ssim-rd / signhide / no-tskip / nr-intra=0 / nr-inter=0 / no-constrained-intra / strong-intra-smoothing / max-merge=2 / limit-refs=3 / no-limit-modes / me=1 / subme=2 / merange=57 / temporal-mvp / weightp / no-weightb / no-analyze-src-pics / deblock=0:0 / no-sao / no-sao-non-deblock / rd=3 / no-early-skip / rskip / no-fast-intra / no-tskip-fast / no-cu-lossless / no-b-intra / no-splitrd-skip / rdpenalty=0 / psy-rd=2.00 / psy-rdoq=0.00 / no-rd-refine / no-lossless / cbqpoffs=0 / crqpoffs=0 / rc=crf / crf=20.0 / qcomp=0.60 / qpstep=4 / stats-write=0 / stats-read=0 / vbv-maxrate=160000 / vbv-bufsize=160000 / vbv-init=0.9 / crf-max=0.0 / crf-min=0.0 / ipratio=1.40 / pbratio=1.30 / aq-mode=1 / aq-strength=1.00 / cutree / zone-count=0 / no-strict-cbr / qg-size=32 / no-rc-grain / qpmax=69 / qpmin=0 / no-const-vbv / sar=1 / overscan=0 / videoformat=5 / range=0 / colorprim=2 / transfer=2 / colormatrix=2 / chromaloc=0 / display-window=0 / max-cll=0,0 / min-luma=0 / max-luma=1023 / log2-max-poc-lsb=8 / vui-timing-info / vui-hrd-info / slices=1 / opt-qp-pps / opt-ref-list-length-pps / no-multi-pass-opt-rps / scenecut-bias=0.05 / no-opt-cu-delta-qp / no-aq-motion / no-hdr / no-hdr-opt / no-dhdr10-opt / no-idr-recovery-sei / analysis-reuse-level=5 / scale-factor=0 / refine-intra=0 / refine-inter=0 / refine-mv=0 / refine-ctu-distortion=0 / no-limit-sao / ctu-info=0 / no-lowpass-dct / refine-analysis-type=0 / copy-pic=1 / max-ausize-factor=1.0 / no-dynamic-refine / no-single-sei / no-hevc-aq / qp-adaptation-range=1.00
  21. Default                                  : Yes
  22. Forced                                   : No
  23. Audio #1
  24. ID                                       : 2
  25. ID in the original source medium         : 4353 (0x1101)
  26. Format                                   : DTS XLL
  27. Format/Info                              : Digital Theater Systems
  28. Commercial name                          : DTS-HD Master Audio
  29. Codec ID                                 : A_DTS
  30. Duration                                 : 2 h 40 min
  31. Bit rate mode                            : Variable
  32. Bit rate                                 : 4 063 kb/s
  33. Channel(s)                               : 6 channels
  34. Channel layout                           : C L R Ls Rs LFE
  35. Sampling rate                            : 48.0 kHz
  36. Frame rate                               : 93.750 FPS (512 SPF)
  37. Bit depth                                : 24 bits
  38. Compression mode                         : Lossless
  39. Stream size                              : 4.56 GiB (7%)
  40. Title                                    : DTS-HD MA 5.1
  41. Language                                 : Japanese
  42. Default                                  : Yes
  43. Forced                                   : No
  44. Original source medium                   : Blu-ray
  45. Audio #2
  46. ID                                       : 3
  47. Format                                   : AC-3
  48. Format/Info                              : Audio Coding 3
  49. Commercial name                          : Dolby Digital
  50. Codec ID                                 : A_AC3
  51. Duration                                 : 2 h 40 min
  52. Bit rate mode                            : Constant
  53. Bit rate                                 : 640 kb/s
  54. Channel(s)                               : 6 channels
  55. Channel layout                           : L R C LFE Ls Rs
  56. Sampling rate                            : 48.0 kHz
  57. Frame rate                               : 31.250 FPS (1536 SPF)
  58. Compression mode                         : Lossy
  59. Stream size                              : 735 MiB (1%)
  60. Title                                    : DD 5.1
  61. Language                                 : Japanese
  62. Service kind                             : Complete Main
  63. Default                                  : No
  64. Forced                                   : No
  65. Audio #3
  66. ID                                       : 4
  67. ID in the original source medium         : 4355 (0x1103)
  68. Format                                   : DTS XLL
  69. Format/Info                              : Digital Theater Systems
  70. Commercial name                          : DTS-HD Master Audio
  71. Codec ID                                 : A_DTS
  72. Duration                                 : 2 h 40 min
  73. Bit rate mode                            : Variable
  74. Bit rate                                 : 3 795 kb/s
  75. Channel(s)                               : 6 channels
  76. Channel layout                           : C L R Ls Rs LFE
  77. Sampling rate                            : 48.0 kHz
  78. Frame rate                               : 93.750 FPS (512 SPF)
  79. Bit depth                                : 24 bits
  80. Compression mode                         : Lossless
  81. Stream size                              : 4.26 GiB (7%)
  82. Title                                    : DTS-HD MA 5.1
  83. Language                                 : English
  84. Default                                  : No
  85. Forced                                   : No
  86. Original source medium                   : Blu-ray
  87. Audio #4
  88. ID                                       : 5
  89. Format                                   : AC-3
  90. Format/Info                              : Audio Coding 3
  91. Commercial name                          : Dolby Digital
  92. Codec ID                                 : A_AC3
  93. Duration                                 : 2 h 40 min
  94. Bit rate mode                            : Constant
  95. Bit rate                                 : 640 kb/s
  96. Channel(s)                               : 6 channels
  97. Channel layout                           : L R C LFE Ls Rs
  98. Sampling rate                            : 48.0 kHz
  99. Frame rate                               : 31.250 FPS (1536 SPF)
  100. Compression mode                         : Lossy
  101. Stream size                              : 735 MiB (1%)
  102. Title                                    : DD 5.1
  103. Language                                 : English
  104. Service kind                             : Complete Main
  105. Default                                  : No
  106. Forced                                   : No
  107. Text #1
  108. ID                                       : 6
  109. Format                                   : UTF-8
  110. Codec ID                                 : S_TEXT/UTF8
  111. Codec ID/Info                            : UTF-8 Plain Text
  112. Duration                                 : 2 h 35 min
  113. Bit rate                                 : 25 b/s
  114. Count of elements                        : 1239
  115. Stream size                              : 28.7 KiB (0%)
  116. Title                                    : SRT
  117. Language                                 : English
  118. Default                                  : No
  119. Forced                                   : No
  120. Text #2
  121. ID                                       : 7
  122. ID in the original source medium         : 4769 (0x12A1)
  123. Format                                   : PGS
  124. Muxing mode                              : zlib
  125. Codec ID                                 : S_HDMV/PGS
  126. Codec ID/Info                            : Picture based subtitle format used on BDs/HD-DVDs
  127. Duration                                 : 2 h 35 min
  128. Bit rate                                 : 16.1 kb/s
  129. Count of elements                        : 2486
  130. Stream size                              : 17.9 MiB (0%)
  131. Language                                 : English
  132. Default                                  : No
  133. Forced                                   : No
  134. Original source medium                   : Blu-ray
  135. Text #3
  136. ID                                       : 8
  137. ID in the original source medium         : 4768 (0x12A0)
  138. Format                                   : PGS
  139. Muxing mode                              : zlib
  140. Codec ID                                 : S_HDMV/PGS
  141. Codec ID/Info                            : Picture based subtitle format used on BDs/HD-DVDs
  142. Duration                                 : 2 h 35 min
  143. Bit rate                                 : 18.4 kb/s
  144. Count of elements                        : 2476
  145. Stream size                              : 20.5 MiB (0%)
  146. Language                                 : German
  147. Default                                  : No
  148. Forced                                   : No
  149. Original source medium                   : Blu-ray
  150. Text #4
  151. ID                                       : 9
  152. ID in the original source medium         : 4770 (0x12A2)
  153. Format                                   : PGS
  154. Muxing mode                              : zlib
  155. Codec ID                                 : S_HDMV/PGS
  156. Codec ID/Info                            : Picture based subtitle format used on BDs/HD-DVDs
  157. Duration                                 : 2 h 37 min
  158. Bit rate                                 : 15.8 kb/s
  159. Count of elements                        : 2526
  160. Stream size                              : 17.8 MiB (0%)
  161. Language                                 : French
  162. Default                                  : No
  163. Forced                                   : No
  164. Original source medium                   : Blu-ray
  165. Menu
  166. 00:00:00.000                             : Chapter 01
  167. 00:12:09.833                             : Chapter 02
  168. 00:26:00.791                             : Chapter 03
  169. 00:38:47.958                             : Chapter 04
  170. 00:51:34.541                             : Chapter 05
  171. 01:04:10.958                             : Chapter 06
  172. 01:17:57.416                             : Chapter 07
  173. 01:28:56.000                             : Chapter 08
  174. 01:43:53.833                             : Chapter 09
  175. 01:59:30.666                             : Chapter 10
  176. 02:14:42.500                             : Chapter 11
  177. 02:33:02.125                             : Chapter 12
复制代码





                                       
                                       

                                       
                                       
                                       




Ran.1985.JAPANESE.2160p.BluRay.x265.10bit.SDR.DTS-HD.MA.5.1-SWTYBLZ.torrent (77.01 KB)
回复

使用道具 举报

懒得打字嘛,点击右侧快捷回复 【右侧内容,后台自定义】
您需要登录后才可以回帖 登录 | 立即加入

本版积分规则

小黑屋|蓝光电影网 |网站地图 

GMT+8, 2021-8-2 04:38 , Processed in 0.075746 second(s), 37 queries .

Powered by 蓝光电影网

Copyright © 2021,[蓝光电影网] 举报反馈邮箱:kf4k1080#hotmail.com(#[email protected])

免责声明:本站所有资源均收集自互联网,没有提供影片资源存储,也未参与录制、上传。若本站收录的资源涉及您的版权或知识产权或其他利益,请附上版权证明邮件告知,在收到邮件后24小时内删除。

快速回复 返回顶部 返回列表