蓝光电影网

 找回密码
 立即加入
搜索
查看: 224|回复: 4

[2160p] 超级智能 Superintelligence.2020.2160p.WEB-DL.x265.10bit.HDR.DD5.1-ROCCaT 18.25GB

[复制链接]
蓝光币
159
发表于 2021-7-19 18:04:15 | 显示全部楼层 |阅读模式


◎译  名 超级智能
◎片  名 Super-Intelligence
◎年  代 2020
◎产  地 美国
◎类  别 喜剧 / 动作
◎语  言 英语
◎上映日期 2020-11-26(美国)
◎豆瓣评分 5.4/10 from 315 users
◎豆瓣链接 https://movie.douban.com/subject/30193475/
◎导  演 本·法尔科内 Ben Falcone
◎编  剧 史蒂夫·马洛 Steve Mallory
◎主  演 梅丽莎·麦卡西 Melissa McCarthy
       詹姆斯·柯登 James Corden
       鲍比·坎纳瓦尔 Bobby Cannavale
       布莱恩·泰里·亨利 Brian Tyree Henry
       珍·斯马特 Jean Smart
       卡兰·索尼 Karan Soni
       莎拉·贝克 Sarah Baker
       朱万达斯·坎迪斯 Jwaundace Candece
       迈克尔·比奇 Michael Beach
       乌斯曼·阿利 Usman Ally
       山姆·理查森 Sam Richardson
       安德鲁·T·李 Andrew T. Lee
       施奎塔·詹姆斯 Shiquita James
       艾琳·法萨诺 Erin Fasano
       麦克斯威尔·海史密斯 Maxwell Highsmith
       帕蒂·舍尔哈斯 Patti Schellhaas
       Tina Witherby Tina Witherby
       查尔斯·格林 Charles Green
       何塞·阿尔弗雷多·费尔南德斯 José Alfredo Fernandez
       保罗·皮尔斯伯里 Paul Pillsbury
◎标  签 喜剧 | 科幻 | 美国 | 2020 | 梅丽莎·麦卡西 | 美国电影 | 电影 | 詹姆斯·柯登
◎简  介


  梅丽莎·麦卡西将主演动作喜剧《超级智能》(Super-Intelligence),麦卡西丈夫本·法尔科内执导,这是两人自《塔米的旅行》《老板》《派对主角》后第四次以演员-导演身份合作。麦卡西饰演前企业高管Carol Peters,当她被世界上第一个超级智能——一个可能掌控世界的人工智能选中作为观察目标后,她的生活发生翻天覆地的变化。Steve Mallory(《老板》)编写剧本,7月开拍,新线出品。
  1. Video
  2. ID                                       : 1
  3. Format                                   : HEVC
  4. Format/Info                              : High Efficiency Video Coding
  5. Format profile                           : Main [email protected]@High
  6. HDR format                               : SMPTE ST 2086, HDR10 compatible
  7. Codec ID                                 : V_MPEGH/ISO/HEVC
  8. Duration                                 : 1 h 45 min
  9. Bit rate                                 : 24.3 Mb/s
  10. Width                                    : 3 836 pixels
  11. Height                                   : 1 604 pixels
  12. Display aspect ratio                     : 2.40:1
  13. Frame rate mode                          : Constant
  14. Frame rate                               : 23.976 (24000/1001/189150) FPS
  15. Color space                              : YUV
  16. Chroma subsampling                       : 4:2:0 (Type 2)
  17. Bit depth                                : 10 bits
  18. Bits/(Pixel*Frame)                       : 0.165
  19. Stream size                              : 18.0 GiB (98%)
  20. Language                                 : English
  21. Default                                  : Yes
  22. Forced                                   : No
  23. Color range                              : Limited
  24. Color primaries                          : BT.2020
  25. Transfer characteristics                 : PQ
  26. Matrix coefficients                      : BT.2020 non-constant
  27. Mastering display color primaries        : BT.2020
  28. Mastering display luminance              : min: 0.0050 cd/m2, max: 1000 cd/m2
  29. Maximum Content Light Level              : 7793 cd/m2
  30. Maximum Frame-Average Light Level        : 183 cd/m2

  31. Audio
  32. ID                                       : 2
  33. Format                                   : AC-3
  34. Format/Info                              : Audio Coding 3
  35. Commercial name                          : Dolby Digital
  36. Codec ID                                 : A_AC3
  37. Duration                                 : 1 h 45 min
  38. Bit rate mode                            : Constant
  39. Bit rate                                 : 384 kb/s
  40. Channel(s)                               : 6 channels
  41. Channel layout                           : L R C LFE Ls Rs
  42. Sampling rate                            : 48.0 kHz
  43. Frame rate                               : 31.250 FPS (1536 SPF)
  44. Compression mode                         : Lossy
  45. Stream size                              : 291 MiB (2%)
  46. Language                                 : English
  47. Service kind                             : Complete Main
  48. Default                                  : Yes
  49. Forced                                   : No

  50. Text #1
  51. ID                                       : 3
  52. Format                                   : UTF-8
  53. Codec ID                                 : S_TEXT/UTF8
  54. Codec ID/Info                            : UTF-8 Plain Text
  55. Duration                                 : 1 h 44 min
  56. Bit rate                                 : 149 b/s
  57. Count of elements                        : 2123
  58. Stream size                              : 114 KiB (0%)
  59. Language                                 : Arabic
  60. Default                                  : No
  61. Forced                                   : No

  62. Text #2
  63. ID                                       : 4
  64. Format                                   : UTF-8
  65. Codec ID                                 : S_TEXT/UTF8
  66. Codec ID/Info                            : UTF-8 Plain Text
  67. Duration                                 : 1 h 44 min
  68. Bit rate                                 : 88 b/s
  69. Count of elements                        : 2129
  70. Stream size                              : 68.0 KiB (0%)
  71. Language                                 : Czech
  72. Default                                  : No
  73. Forced                                   : No

  74. Text #3
  75. ID                                       : 5
  76. Format                                   : UTF-8
  77. Codec ID                                 : S_TEXT/UTF8
  78. Codec ID/Info                            : UTF-8 Plain Text
  79. Duration                                 : 1 h 44 min
  80. Bit rate                                 : 84 b/s
  81. Count of elements                        : 2150
  82. Stream size                              : 64.7 KiB (0%)
  83. Language                                 : Chinese
  84. Default                                  : No
  85. Forced                                   : No

  86. Text #4
  87. ID                                       : 6
  88. Format                                   : UTF-8
  89. Codec ID                                 : S_TEXT/UTF8
  90. Codec ID/Info                            : UTF-8 Plain Text
  91. Duration                                 : 1 h 45 min
  92. Bit rate                                 : 100 b/s
  93. Count of elements                        : 1645
  94. Stream size                              : 78.0 KiB (0%)
  95. Title                                    : (SDH)
  96. Language                                 : German
  97. Default                                  : No
  98. Forced                                   : No

  99. Text #5
  100. ID                                       : 7
  101. Format                                   : UTF-8
  102. Codec ID                                 : S_TEXT/UTF8
  103. Codec ID/Info                            : UTF-8 Plain Text
  104. Duration                                 : 1 h 44 min
  105. Bit rate                                 : 165 b/s
  106. Count of elements                        : 2137
  107. Stream size                              : 127 KiB (0%)
  108. Language                                 : Greek
  109. Default                                  : No
  110. Forced                                   : No

  111. Text #6
  112. ID                                       : 8
  113. Format                                   : UTF-8
  114. Codec ID                                 : S_TEXT/UTF8
  115. Codec ID/Info                            : UTF-8 Plain Text
  116. Duration                                 : 1 h 39 min
  117. Bit rate                                 : 112 b/s
  118. Count of elements                        : 2448
  119. Stream size                              : 81.6 KiB (0%)
  120. Title                                    : (SDH)
  121. Language                                 : English
  122. Default                                  : No
  123. Forced                                   : No

  124. Text #7
  125. ID                                       : 9
  126. Format                                   : UTF-8
  127. Codec ID                                 : S_TEXT/UTF8
  128. Codec ID/Info                            : UTF-8 Plain Text
  129. Duration                                 : 1 h 44 min
  130. Bit rate                                 : 91 b/s
  131. Count of elements                        : 2143
  132. Stream size                              : 70.0 KiB (0%)
  133. Language                                 : Estonian
  134. Default                                  : No
  135. Forced                                   : No

  136. Text #8
  137. ID                                       : 10
  138. Format                                   : UTF-8
  139. Codec ID                                 : S_TEXT/UTF8
  140. Codec ID/Info                            : UTF-8 Plain Text
  141. Duration                                 : 1 h 44 min
  142. Bit rate                                 : 107 b/s
  143. Count of elements                        : 2126
  144. Stream size                              : 82.1 KiB (0%)
  145. Language                                 : French
  146. Default                                  : No
  147. Forced                                   : No

  148. Text #9
  149. ID                                       : 11
  150. Format                                   : UTF-8
  151. Codec ID                                 : S_TEXT/UTF8
  152. Codec ID/Info                            : UTF-8 Plain Text
  153. Duration                                 : 1 h 44 min
  154. Bit rate                                 : 102 b/s
  155. Count of elements                        : 2144
  156. Stream size                              : 78.2 KiB (0%)
  157. Language                                 : Hungarian
  158. Default                                  : No
  159. Forced                                   : No

  160. Text #10
  161. ID                                       : 12
  162. Format                                   : UTF-8
  163. Codec ID                                 : S_TEXT/UTF8
  164. Codec ID/Info                            : UTF-8 Plain Text
  165. Duration                                 : 1 h 39 min
  166. Bit rate                                 : 75 b/s
  167. Count of elements                        : 1860
  168. Stream size                              : 55.3 KiB (0%)
  169. Language                                 : Japanese
  170. Default                                  : No
  171. Forced                                   : No

  172. Text #11
  173. ID                                       : 13
  174. Format                                   : UTF-8
  175. Codec ID                                 : S_TEXT/UTF8
  176. Codec ID/Info                            : UTF-8 Plain Text
  177. Duration                                 : 1 h 44 min
  178. Bit rate                                 : 95 b/s
  179. Count of elements                        : 2146
  180. Stream size                              : 73.3 KiB (0%)
  181. Language                                 : Latvian
  182. Default                                  : No
  183. Forced                                   : No

  184. Text #12
  185. ID                                       : 14
  186. Format                                   : UTF-8
  187. Codec ID                                 : S_TEXT/UTF8
  188. Codec ID/Info                            : UTF-8 Plain Text
  189. Duration                                 : 1 h 44 min
  190. Bit rate                                 : 92 b/s
  191. Count of elements                        : 2111
  192. Stream size                              : 71.2 KiB (0%)
  193. Language                                 : Lithuanian
  194. Default                                  : No
  195. Forced                                   : No

  196. Text #13
  197. ID                                       : 15
  198. Format                                   : UTF-8
  199. Codec ID                                 : S_TEXT/UTF8
  200. Codec ID/Info                            : UTF-8 Plain Text
  201. Duration                                 : 1 h 44 min
  202. Bit rate                                 : 71 b/s
  203. Count of elements                        : 1281
  204. Stream size                              : 54.5 KiB (0%)
  205. Language                                 : Dutch
  206. Default                                  : No
  207. Forced                                   : No

  208. Text #14
  209. ID                                       : 16
  210. Format                                   : UTF-8
  211. Codec ID                                 : S_TEXT/UTF8
  212. Codec ID/Info                            : UTF-8 Plain Text
  213. Duration                                 : 1 h 44 min
  214. Bit rate                                 : 76 b/s
  215. Count of elements                        : 2051
  216. Stream size                              : 58.9 KiB (0%)
  217. Language                                 : Polish
  218. Default                                  : No
  219. Forced                                   : No

  220. Text #15
  221. ID                                       : 17
  222. Format                                   : UTF-8
  223. Codec ID                                 : S_TEXT/UTF8
  224. Codec ID/Info                            : UTF-8 Plain Text
  225. Duration                                 : 1 h 44 min
  226. Bit rate                                 : 95 b/s
  227. Count of elements                        : 2138
  228. Stream size                              : 73.3 KiB (0%)
  229. Language                                 : Portuguese
  230. Default                                  : No
  231. Forced                                   : No

  232. Text #16
  233. ID                                       : 18
  234. Format                                   : UTF-8
  235. Codec ID                                 : S_TEXT/UTF8
  236. Codec ID/Info                            : UTF-8 Plain Text
  237. Duration                                 : 1 h 44 min
  238. Bit rate                                 : 182 b/s
  239. Count of elements                        : 2145
  240. Stream size                              : 139 KiB (0%)
  241. Language                                 : Russian
  242. Default                                  : No
  243. Forced                                   : No

  244. Text #17
  245. ID                                       : 19
  246. Format                                   : UTF-8
  247. Codec ID                                 : S_TEXT/UTF8
  248. Codec ID/Info                            : UTF-8 Plain Text
  249. Duration                                 : 1 h 44 min
  250. Bit rate                                 : 102 b/s
  251. Count of elements                        : 2142
  252. Stream size                              : 78.4 KiB (0%)
  253. Language                                 : Spanish
  254. Default                                  : No
  255. Forced                                   : No

  256. Text #18
  257. ID                                       : 20
  258. Format                                   : UTF-8
  259. Codec ID                                 : S_TEXT/UTF8
  260. Codec ID/Info                            : UTF-8 Plain Text
  261. Duration                                 : 1 h 44 min
  262. Bit rate                                 : 238 b/s
  263. Count of elements                        : 2123
  264. Stream size                              : 183 KiB (0%)
  265. Language                                 : Thai
  266. Default                                  : No
  267. Forced                                   : No
复制代码




                                       
                                       

                                       
                                       
                                       




Superintelligence.2020.2160p.WEB-DL.x265.10bit.HDR.DD5.1-ROCCaT.torrent (23.47 KB)
回复

使用道具 举报

蓝光币
15
发表于 2021-7-19 20:35:24 | 显示全部楼层


00:33
摩西摩西~干嘛不接我们的电话?

回复 支持 反对

使用道具 举报

蓝光币
116
发表于 2021-7-19 21:22:39 | 显示全部楼层

这个帖子不回对不起自己!我想我是一天也不能离开蓝光电影网。
回复 支持 反对

使用道具 举报

蓝光币
303
发表于 2021-7-20 19:46:10 | 显示全部楼层

我看不错噢 谢谢楼主!蓝光电影网越来越好!
回复 支持 反对

使用道具 举报

蓝光币
2
发表于 2021-7-20 20:16:02 | 显示全部楼层
谢楼主分享
回复 支持 反对

使用道具 举报

懒得打字嘛,点击右侧快捷回复 【右侧内容,后台自定义】
您需要登录后才可以回帖 登录 | 立即加入

本版积分规则

小黑屋|蓝光电影网 |网站地图 

GMT+8, 2021-8-2 05:35 , Processed in 0.080234 second(s), 37 queries .

Powered by 蓝光电影网

Copyright © 2021,[蓝光电影网] 举报反馈邮箱:kf4k1080#hotmail.com(#[email protected])

免责声明:本站所有资源均收集自互联网,没有提供影片资源存储,也未参与录制、上传。若本站收录的资源涉及您的版权或知识产权或其他利益,请附上版权证明邮件告知,在收到邮件后24小时内删除。

快速回复 返回顶部 返回列表