蓝光电影网

 找回密码
 立即加入
搜索
查看: 197|回复: 4

[2160p] 封锁/封锁隔离 Locked.Down.2021.2160p.WEB-DL.x265.10bit.HDR.DDP5.1.Atmos-ROCCaT 12.47GB

[复制链接]
蓝光币
159
发表于 2021-7-19 18:04:17 | 显示全部楼层 |阅读模式


◎译  名 封锁/封锁隔离
◎片  名 Locked Down
◎年  代 2021
◎产  地 英国,美国
◎类  别 喜剧 / 爱情 / 犯罪
◎语  言 英语
◎上映日期 2021-01-14(美国网络) / 2021-03-05(英国)
◎豆瓣评分 5.3/10 from 1227 users
◎豆瓣链接 https://movie.douban.com/subject/35202854/
◎片  长 118分钟
◎导  演 道格·里曼 Doug Liman
◎编  剧 斯蒂文·奈特 Steven Knight
◎主  演 安妮·海瑟薇 Anne Hathaway
       切瓦特·埃加福 Chiwetel Ejiofor
       斯戴芬·莫昌特 Stephen Merchant
       敏迪·卡灵 Mindy Kaling
       本·金斯利 Ben Kingsley
       露西·宝通 Lucy Boynton
       杜勒·希尔 Dulé Hill
       贾兹敏·西蒙 Jazmyn Simon
       本·斯蒂勒 Ben Stiller
       马克·加蒂斯 Mark Gatiss
       鲍比·斯科菲尔德 Bobby Schofield
◎标  签 安妮·海瑟薇 | 犯罪 | 2021 | 喜剧 | 美国 | 英国 | 美国电影 | 电影
◎简  介


  设定在新冠疫情封城期间,讲述一对日常争吵不断的夫妻琳达和帕克斯顿休战,计划去完成一场高风险的抢劫——在世界上最高档的百货公司之一哈罗德搜刮珠宝。
  1. Video
  2. ID                                       : 1
  3. Format                                   : HEVC
  4. Format/Info                              : High Efficiency Video Coding
  5. Format profile                           : Main [email protected]@High
  6. HDR format                               : SMPTE ST 2086, HDR10 compatible
  7. Codec ID                                 : V_MPEGH/ISO/HEVC
  8. Duration                                 : 1 h 57 min
  9. Bit rate                                 : 14.4 Mb/s
  10. Width                                    : 3 840 pixels
  11. Height                                   : 2 068 pixels
  12. Display aspect ratio                     : 1.85:1
  13. Frame rate mode                          : Constant
  14. Frame rate                               : 23.976 (24000/1001/189150) FPS
  15. Color space                              : YUV
  16. Chroma subsampling                       : 4:2:0 (Type 2)
  17. Bit depth                                : 10 bits
  18. Bits/(Pixel*Frame)                       : 0.075
  19. Stream size                              : 11.8 GiB (95%)
  20. Language                                 : English
  21. Default                                  : Yes
  22. Forced                                   : No
  23. Color range                              : Limited
  24. Color primaries                          : BT.2020
  25. Transfer characteristics                 : PQ
  26. Matrix coefficients                      : BT.2020 non-constant
  27. Mastering display color primaries        : BT.2020
  28. Mastering display luminance              : min: 0.0050 cd/m2, max: 1000 cd/m2
  29. Maximum Content Light Level              : 1370 cd/m2
  30. Maximum Frame-Average Light Level        : 142 cd/m2

  31. Audio
  32. ID                                       : 2
  33. Format                                   : E-AC-3 JOC
  34. Format/Info                              : Enhanced AC-3 with Joint Object Coding
  35. Commercial name                          : Dolby Digital Plus with Dolby Atmos
  36. Codec ID                                 : A_EAC3
  37. Duration                                 : 1 h 57 min
  38. Bit rate mode                            : Constant
  39. Bit rate                                 : 768 kb/s
  40. Channel(s)                               : 6 channels
  41. Channel layout                           : L R C LFE Ls Rs
  42. Sampling rate                            : 48.0 kHz
  43. Frame rate                               : 31.250 FPS (1536 SPF)
  44. Compression mode                         : Lossy
  45. Stream size                              : 648 MiB (5%)
  46. Language                                 : English
  47. Service kind                             : Complete Main
  48. Default                                  : Yes
  49. Forced                                   : No
  50. Complexity index                         : 16
  51. Number of dynamic objects                : 15
  52. Bed channel count                        : 1 channel
  53. Bed channel configuration                : LFE

  54. Text #1
  55. ID                                       : 3
  56. Format                                   : UTF-8
  57. Codec ID                                 : S_TEXT/UTF8
  58. Codec ID/Info                            : UTF-8 Plain Text
  59. Duration                                 : 1 h 51 min
  60. Bit rate                                 : 93 b/s
  61. Count of elements                        : 2073
  62. Stream size                              : 76.6 KiB (0%)
  63. Title                                    : (SDH)
  64. Language                                 : English
  65. Default                                  : No
  66. Forced                                   : No

  67. Text #2
  68. ID                                       : 4
  69. Format                                   : UTF-8
  70. Codec ID                                 : S_TEXT/UTF8
  71. Codec ID/Info                            : UTF-8 Plain Text
  72. Duration                                 : 1 h 56 min
  73. Bit rate                                 : 70 b/s
  74. Count of elements                        : 1801
  75. Stream size                              : 60.5 KiB (0%)
  76. Language                                 : French
  77. Default                                  : No
  78. Forced                                   : No

  79. Text #3
  80. ID                                       : 5
  81. Format                                   : UTF-8
  82. Codec ID                                 : S_TEXT/UTF8
  83. Codec ID/Info                            : UTF-8 Plain Text
  84. Duration                                 : 1 h 54 min
  85. Bit rate                                 : 86 b/s
  86. Count of elements                        : 1805
  87. Stream size                              : 72.2 KiB (0%)
  88. Language                                 : Italian
  89. Default                                  : No
  90. Forced                                   : No

  91. Text #4
  92. ID                                       : 6
  93. Format                                   : UTF-8
  94. Codec ID                                 : S_TEXT/UTF8
  95. Codec ID/Info                            : UTF-8 Plain Text
  96. Duration                                 : 1 h 56 min
  97. Bit rate                                 : 70 b/s
  98. Count of elements                        : 1598
  99. Stream size                              : 60.2 KiB (0%)
  100. Language                                 : Dutch
  101. Default                                  : No
  102. Forced                                   : No

  103. Text #5
  104. ID                                       : 7
  105. Format                                   : UTF-8
  106. Codec ID                                 : S_TEXT/UTF8
  107. Codec ID/Info                            : UTF-8 Plain Text
  108. Duration                                 : 1 h 56 min
  109. Bit rate                                 : 75 b/s
  110. Count of elements                        : 2006
  111. Stream size                              : 64.2 KiB (0%)
  112. Language                                 : Portuguese
  113. Default                                  : No
  114. Forced                                   : No
复制代码




                                       
                                       

                                       
                                       
                                       




Locked.Down.2021.2160p.WEB-DL.x265.10bit.HDR.DDP5.1.Atmos-ROCCaT.torrent (16.24 KB)
回复

使用道具 举报

蓝光币
0
发表于 2021-7-20 17:22:29 | 显示全部楼层
谢谢楼主分享
回复 支持 反对

使用道具 举报

蓝光币
303
发表于 2021-7-20 19:33:39 | 显示全部楼层
楼主发贴辛苦了,谢谢楼主分享!我觉得蓝光电影网是注册对了!
回复 支持 反对

使用道具 举报

蓝光币
2
发表于 2021-7-20 20:18:35 | 显示全部楼层
谢楼主分享
回复 支持 反对

使用道具 举报

蓝光币
11
发表于 2021-7-22 16:14:39 来自手机 | 显示全部楼层
封城时拍的电影??
回复 支持 反对

使用道具 举报

懒得打字嘛,点击右侧快捷回复 【右侧内容,后台自定义】
您需要登录后才可以回帖 登录 | 立即加入

本版积分规则

小黑屋|蓝光电影网 |网站地图 

GMT+8, 2021-8-2 04:06 , Processed in 0.079279 second(s), 37 queries .

Powered by 蓝光电影网

Copyright © 2021,[蓝光电影网] 举报反馈邮箱:kf4k1080#hotmail.com(#[email protected])

免责声明:本站所有资源均收集自互联网,没有提供影片资源存储,也未参与录制、上传。若本站收录的资源涉及您的版权或知识产权或其他利益,请附上版权证明邮件告知,在收到邮件后24小时内删除。

快速回复 返回顶部 返回列表