蓝光电影网

 找回密码
 立即加入
搜索
查看: 193|回复: 0

[2160p] 粉色火烈鸟之惑 The.Mystery.of.the.Pink.Flamingo.2020.2160p.WEB-DL.x265.10bit.SDR.DD5.1-ROCCaT 12.68GB

[复制链接]
蓝光币
159
发表于 2021-7-19 18:04:19 | 显示全部楼层 |阅读模式


◎译  名 粉色火烈鸟之惑/El misterio del Pink Flamingo
◎片  名 The Mystery of the Pink Flamingo
◎年  代 2020
◎产  地 西班牙
◎类  别 喜剧 / 纪录片
◎语  言 西班牙语,英语
◎上映日期 2020-03-15(西班牙)
◎豆瓣评分 /10 from 0 users
◎豆瓣链接 https://movie.douban.com/subject/35138280/
◎片  长 82分钟
◎导  演 哈维尔·波罗·甘迪亚 Javier Polo Gandía
◎编  剧 哈维尔·波罗·甘迪亚 Javier Polo Gandía
◎主  演 阿利·威利斯 Allee Willis
◎标  签 纪录片 | 2020 | 西班牙 | 美国电影 | 海南岛国际电影节 | 剧情 | HIIFF | 喜剧
◎简  介


  音效师里戈的生活突然被一个奇怪的声音扰乱,而声音来自于一群粉红色的火烈鸟。里戈由此开始调查粉色火烈鸟这一对他而言十分古怪且引发困扰的形象,试图解释它们背后神秘的含义。他只身从西班牙出发,与世界各地的文化人士会面,共同探讨粉色火烈鸟为何受到全球广泛的欢迎,这趟奇异的旅程也成为粉色火烈鸟这一符号对当今流行文化的解读与自我剖析的联结。
  1. Video
  2. ID                                       : 1
  3. Format                                   : HEVC
  4. Format/Info                              : High Efficiency Video Coding
  5. Format profile                           : Main [email protected]@High
  6. Codec ID                                 : V_MPEGH/ISO/HEVC
  7. Duration                                 : 1 h 26 min
  8. Bit rate                                 : 20.6 Mb/s
  9. Width                                    : 3 840 pixels
  10. Height                                   : 2 160 pixels
  11. Display aspect ratio                     : 16:9
  12. Frame rate mode                          : Constant
  13. Frame rate                               : 25.000 FPS
  14. Color space                              : YUV
  15. Chroma subsampling                       : 4:2:0
  16. Bit depth                                : 10 bits
  17. Bits/(Pixel*Frame)                       : 0.099
  18. Stream size                              : 12.4 GiB (98%)
  19. Language                                 : English
  20. Default                                  : Yes
  21. Forced                                   : No
  22. Color range                              : Limited
  23. Color primaries                          : BT.709
  24. Transfer characteristics                 : BT.709
  25. Matrix coefficients                      : BT.709
  26. Audio
  27. ID                                       : 2
  28. Format                                   : AC-3
  29. Format/Info                              : Audio Coding 3
  30. Commercial name                          : Dolby Digital
  31. Codec ID                                 : A_AC3
  32. Duration                                 : 1 h 26 min
  33. Bit rate mode                            : Constant
  34. Bit rate                                 : 384 kb/s
  35. Channel(s)                               : 6 channels
  36. Channel layout                           : L R C LFE Ls Rs
  37. Sampling rate                            : 48.0 kHz
  38. Frame rate                               : 31.250 FPS (1536 SPF)
  39. Compression mode                         : Lossy
  40. Stream size                              : 238 MiB (2%)
  41. Language                                 : English
  42. Service kind                             : Complete Main
  43. Default                                  : Yes
  44. Forced                                   : No
  45. Text
  46. ID                                       : 3
  47. Format                                   : UTF-8
  48. Codec ID                                 : S_TEXT/UTF8
  49. Codec ID/Info                            : UTF-8 Plain Text
  50. Duration                                 : 1 h 14 min
  51. Bit rate                                 : 59 b/s
  52. Count of elements                        : 929
  53. Stream size                              : 32.4 KiB (0%)
  54. Title                                    : (SDH)
  55. Language                                 : English
  56. Default                                  : No
  57. Forced                                   : No
复制代码





                                       
                                       

                                       
                                       
                                       




The.Mystery.of.the.Pink.Flamingo.2020.2160p.WEB-DL.x265.10bit.SDR.DD5.1-ROCCaT.torrent (16.53 KB)
回复

使用道具 举报

懒得打字嘛,点击右侧快捷回复 【右侧内容,后台自定义】
您需要登录后才可以回帖 登录 | 立即加入

本版积分规则

小黑屋|蓝光电影网 |网站地图 

GMT+8, 2021-8-2 03:07 , Processed in 0.073770 second(s), 37 queries .

Powered by 蓝光电影网

Copyright © 2021,[蓝光电影网] 举报反馈邮箱:kf4k1080#hotmail.com(#[email protected])

免责声明:本站所有资源均收集自互联网,没有提供影片资源存储,也未参与录制、上传。若本站收录的资源涉及您的版权或知识产权或其他利益,请附上版权证明邮件告知,在收到邮件后24小时内删除。

快速回复 返回顶部 返回列表