蓝光电影网

 找回密码
 立即加入
搜索
查看: 250|回复: 2

[2160p] 边缘状态/流亡边界 Limbo.2020.2160p.WEB-DL.x265.10bit.HDR.DD5.1-SWTYBLZ 17.35GB

[复制链接]
蓝光币
159
发表于 2021-7-19 18:04:21 | 显示全部楼层 |阅读模式


◎译  名 边缘状态/流亡边界
◎片  名 Limbo
◎年  代 2020
◎产  地 英国
◎类  别 剧情
◎语  言 英语,阿拉伯语
◎上映日期 2020-07-09(戛纳电影节) / 2020-09-12(多伦多电影节) / 2021-04-30(美国)
◎豆瓣评分 7.5/10 from 977 users
◎豆瓣链接 https://movie.douban.com/subject/34969536/
◎片  长 103分钟
◎导  演 本·夏罗克 Ben Sharrock
◎编  剧 本·夏罗克 Ben Sharrock
◎主  演 埃米尔·艾尔-马斯里 Amir El-Masry
       西瑟·巴比特·科努德森 Sidse Babett Knudsen
       刘易斯·格里本 Lewis Gribben
       埃莉·哈丁顿 Ellie Haddington
       卡伊斯·纳塞夫 Kais Nashef
       卡梅隆·富尔顿 Cameron Fulton
       西尔维·弗诺 Silvie Furneaux
       豪尔赫·吉迪 Jorge Gidi
       桑吉弗·科赫利 Sanjeev Kohli
       雷蒙德·梅恩斯 Raymond Mearns
       奥拉·奥雷比伊 Ola Orebiyi
       维卡什·拜 Vikash Bhai
       夸贝纳·安萨 Kwabena Ansah
       肯尼斯·克拉德 Kenneth Collard
       格蕾丝·奇尔顿 Grace Chilton
◎标  签 英国 | 2020 | 社会 | 剧情 | 戛纳 | 喜剧 | 成长 | 难民
◎简  介


  故事是对在苏格兰岛上等待庇护的难民的一次另类观察。 它聚焦于一位背负重担背离祖国的年轻叙利亚音乐家奥马尔。
◎获奖情况
  第73届戛纳电影节 ?(2020)
  首次入围戛纳导演作品(提名)
  
  第74届英国电影学院奖 ?(2021)
  电影奖最佳英国影片(提名) 本·夏罗克
  电影奖英国本土杰出处女作(提名) 本·夏罗克?/?伊鲁恩·格尔图拜
  
  第45届多伦多国际电影节 ?(2020)
  发现奖(提名)
  
  第68届圣塞巴斯蒂安国际电影节 ?(2020)
  最佳新导演(提名) 本·夏罗克
  
  第23届英国独立电影奖 ?(2020)
  最佳男主角(提名) 埃米尔·艾尔-马斯里
  制片突破
  最佳选角(提名)
  最佳摄影(提名)
  1. Video
  2. ID                                       : 1
  3. Format                                   : HEVC
  4. Format/Info                              : High Efficiency Video Coding
  5. Format profile                           : Main [email protected]@High
  6. HDR format                               : SMPTE ST 2086, HDR10 compatible
  7. Codec ID                                 : V_MPEGH/ISO/HEVC
  8. Duration                                 : 1 h 44 min
  9. Bit rate                                 : 23.3 Mb/s
  10. Width                                    : 3 836 pixels
  11. Height                                   : 2 080 pixels
  12. Display aspect ratio                     : 1.85:1
  13. Frame rate mode                          : Constant
  14. Frame rate                               : 23.976 FPS
  15. Color space                              : YUV
  16. Chroma subsampling                       : 4:2:0 (Type 2)
  17. Bit depth                                : 10 bits
  18. Bits/(Pixel*Frame)                       : 0.122
  19. Stream size                              : 17.1 GiB (98%)
  20. Default                                  : Yes
  21. Forced                                   : No
  22. Color range                              : Limited
  23. Color primaries                          : BT.2020
  24. Transfer characteristics                 : PQ
  25. Matrix coefficients                      : BT.2020 non-constant
  26. Mastering display color primaries        : Display P3
  27. Mastering display luminance              : min: 0.0050 cd/m2, max: 1000 cd/m2
  28. Maximum Content Light Level              : 975 cd/m2
  29. Maximum Frame-Average Light Level        : 62 cd/m2

  30. Audio
  31. ID                                       : 2
  32. Format                                   : AC-3
  33. Format/Info                              : Audio Coding 3
  34. Commercial name                          : Dolby Digital
  35. Codec ID                                 : A_AC3
  36. Duration                                 : 1 h 44 min
  37. Bit rate mode                            : Constant
  38. Bit rate                                 : 384 kb/s
  39. Channel(s)                               : 6 channels
  40. Channel layout                           : L R C LFE Ls Rs
  41. Sampling rate                            : 48.0 kHz
  42. Frame rate                               : 31.250 FPS (1536 SPF)
  43. Compression mode                         : Lossy
  44. Stream size                              : 288 MiB (2%)
  45. Language                                 : English
  46. Service kind                             : Complete Main
  47. Default                                  : Yes
  48. Forced                                   : No

  49. Text #1
  50. ID                                       : 3
  51. Format                                   : UTF-8
  52. Codec ID                                 : S_TEXT/UTF8
  53. Codec ID/Info                            : UTF-8 Plain Text
  54. Duration                                 : 1 h 27 min
  55. Bit rate                                 : 12 b/s
  56. Count of elements                        : 295
  57. Stream size                              : 7.89 KiB (0%)
  58. Title                                    : FORCED
  59. Language                                 : English
  60. Default                                  : No
  61. Forced                                   : Yes

  62. Text #2
  63. ID                                       : 4
  64. Format                                   : UTF-8
  65. Codec ID                                 : S_TEXT/UTF8
  66. Codec ID/Info                            : UTF-8 Plain Text
  67. Duration                                 : 1 h 33 min
  68. Bit rate                                 : 42 b/s
  69. Count of elements                        : 1099
  70. Stream size                              : 29.5 KiB (0%)
  71. Language                                 : English
  72. Default                                  : No
  73. Forced                                   : No

  74. Text #3
  75. ID                                       : 5
  76. Format                                   : UTF-8
  77. Codec ID                                 : S_TEXT/UTF8
  78. Codec ID/Info                            : UTF-8 Plain Text
  79. Duration                                 : 1 h 42 min
  80. Bit rate                                 : 35 b/s
  81. Count of elements                        : 1025
  82. Stream size                              : 27.0 KiB (0%)
  83. Title                                    : Latin American
  84. Language                                 : Spanish
  85. Default                                  : No
  86. Forced                                   : No
复制代码




                                       
                                       

                                       
                                       
                                       




Limbo.2020.2160p.WEB-DL.x265.10bit.HDR.DD5.1-SWTYBLZ.torrent (22.32 KB)
回复

使用道具 举报

蓝光币
317
发表于 2021-7-21 11:02:25 | 显示全部楼层
不错,收下了。
回复 支持 反对

使用道具 举报

蓝光币
1142
发表于 2021-7-22 11:44:39 | 显示全部楼层

不错,收下了。
回复 支持 反对

使用道具 举报

懒得打字嘛,点击右侧快捷回复 【右侧内容,后台自定义】
您需要登录后才可以回帖 登录 | 立即加入

本版积分规则

小黑屋|蓝光电影网 |网站地图 

GMT+8, 2021-8-2 04:08 , Processed in 0.926468 second(s), 37 queries .

Powered by 蓝光电影网

Copyright © 2021,[蓝光电影网] 举报反馈邮箱:kf4k1080#hotmail.com(#[email protected])

免责声明:本站所有资源均收集自互联网,没有提供影片资源存储,也未参与录制、上传。若本站收录的资源涉及您的版权或知识产权或其他利益,请附上版权证明邮件告知,在收到邮件后24小时内删除。

快速回复 返回顶部 返回列表