蓝光电影网

 找回密码
 立即加入
搜索
查看: 89|回复: 1

[2160p] 环形使者/回路杀手 Looper.2012.2160p.BluRay.x264.8bit.SDR.DTS-HD.MA.5.1-SWTYBLZ 68.79GB

[复制链接]
蓝光币
159
发表于 2021-7-20 21:07:26 | 显示全部楼层 |阅读模式


◎译  名 环形使者/回路杀手(台)/时凶猎杀(港)
◎片  名 Looper
◎年  代 2012
◎产  地 美国,中国大陆
◎类  别 动作 / 科幻 / 惊悚
◎语  言 英语,法语,汉语普通话
◎上映日期 2012-09-06(多伦多电影节) / 2012-09-28(美国/中国大陆)
◎豆瓣评分 6.9/10 from 156731 users
◎豆瓣链接 https://movie.douban.com/subject/3179706/
◎片  长 110分钟(中国大陆)
◎导  演 莱恩·约翰逊 Rian Johnson
◎编  剧 莱恩·约翰逊 Rian Johnson
◎主  演 约瑟夫·高登-莱维特 Joseph Gordon-Levitt
       布鲁斯·威利斯 Bruce Willis
       艾米莉·布朗特 Emily Blunt
       保罗·达诺 Paul Dano
       皮尔斯·加格农 Pierce Gagnon
       杰夫·丹尼尔斯 Jeff Daniels
       许晴 Qing Xu
       贾里德·德帕斯夸尔 Jared DePasquale
       大卫·詹森 David Jensen
       科迪·伍德 Cody Wood
       詹姆斯·兰德里·赫伯特 James Landry Hébert
       派珀·佩拉博 Piper Perabo
       诺阿·西甘 Noah Segan
       加瑞特·迪拉胡特 Garret Dillahunt
       尼克·戈麦斯 Nick Gomez
       杰夫·蔡斯 Jeff Chase
       伊恩·帕特里克 Ian Patrick
       马库斯 · 赫斯特 Marcus Hester
       乔恩·阿兹 Jon Eyez
       翠茜·索姆斯 Tracie Thoms
       姜广涛 Guangtao Jiang
◎标  签 科幻 | 美国 | 穿越 | 时空 | 动作 | 2012 | 剧情 | 犯罪
◎简  介


  未来,2044年。时间旅行从被发明的一开始就属于非法,只有当黑帮组织想清理某个特定对象、又不愿意在此世界留下任何痕迹时,才会出动“环形使者”。他们专门负责处决那些被时间传送回彼世界的目标。之所以称为“环形使者”,因为他们最终必须杀死未来的自己——这样才不会给未来主顾留下任何的麻烦。这个过程被称为“封环”。杀手乔(约瑟夫·高登-莱维特 Joseph Gordon-Levitt 饰)是最年轻的环形使者,弹无虚发,然而当他想处决来自未来的自己(布鲁斯·威利斯 Bruce Willis 饰)时,却遭到激烈反抗而失手。老年乔希望杀死未来封环计划中的关键人物——唤雨师,从而改变妻子(许晴 饰)的命运;青年乔在追杀过程中遇到了农场单亲妈妈莎拉(艾米莉·布朗特 Emily Blunt 饰),意外的成为了一对母子的保护人。两个版本的乔在这场改变未来(和现在)的豪赌中各出奇谋,上演了自我的巅峰对决......
◎获奖情况
  第84届美国国家评论协会奖 ?(2013)
  最佳原创剧本 莱恩·约翰逊
  年度佳片
  
  第18届美国评论家选择电影奖 ?(2013)
  最佳动作片(提名)
  动作片最佳男主角(提名) 约瑟夫·高登-莱维特
  动作片最佳女主角(提名) 艾米莉·布朗特
  最佳科幻/恐怖片
  最佳原创剧本(提名) 莱恩·约翰逊
  
  第11届华盛顿影评人协会奖 ?(2012)
  最佳原创剧本 莱恩·约翰逊
  
  第25届芝加哥影评人协会奖 ?(2012)
  最佳女配角(提名) 艾米莉·布朗特
  最佳原创剧本(提名) 莱恩·约翰逊
  
  第12届凤凰城影评人协会奖 ?(2012)
  最佳特技表演(提名)
  1. Video
  2. ID                                       : 1
  3. Format                                   : AVC
  4. Format/Info                              : Advanced Video Codec
  5. Format profile                           : [email protected]
  6. Format settings                          : CABAC / 5 Ref Frames
  7. Format settings, CABAC                   : Yes
  8. Format settings, Reference frames        : 5 frames
  9. Codec ID                                 : V_MPEG4/ISO/AVC
  10. Duration                                 : 1 h 58 min
  11. Bit rate                                 : 79.8 Mb/s
  12. Width                                    : 3 840 pixels
  13. Height                                   : 1 606 pixels
  14. Display aspect ratio                     : 2.40:1
  15. Frame rate mode                          : Constant
  16. Frame rate                               : 23.976 (24000/1001/189150) FPS
  17. Color space                              : YUV
  18. Chroma subsampling                       : 4:2:0
  19. Bit depth                                : 8 bits
  20. Scan type                                : Progressive
  21. Bits/(Pixel*Frame)                       : 0.540
  22. Stream size                              : 66.2 GiB (96%)
  23. Writing library                          : x264 core 157 r2935 545de2f
  24. Encoding settings                        : cabac=1 / ref=5 / deblock=1:-1:-1 / analyse=0x3:0x113 / me=umh / subme=10 / psy=1 / psy_rd=1.00:0.15 / mixed_ref=1 / me_range=48 / chroma_me=1 / trellis=2 / 8x8dct=1 / cqm=0 / deadzone=21,11 / fast_pskip=1 / chroma_qp_offset=-3 / threads=48 / lookahead_threads=4 / sliced_threads=0 / nr=0 / decimate=0 / interlaced=0 / bluray_compat=0 / constrained_intra=0 / bframes=3 / b_pyramid=2 / b_adapt=2 / b_bias=0 / direct=3 / weightb=1 / open_gop=0 / weightp=2 / keyint=250 / keyint_min=23 / scenecut=40 / intra_refresh=0 / rc_lookahead=50 / rc=crf / mbtree=1 / crf=20.0 / qcomp=0.60 / qpmin=0 / qpmax=69 / qpstep=4 / ip_ratio=1.40 / aq=1:1.00
  25. Default                                  : Yes
  26. Forced                                   : No
  27. Audio #1
  28. ID                                       : 2
  29. ID in the original source medium         : 4352 (0x1100)
  30. Format                                   : DTS XLL
  31. Format/Info                              : Digital Theater Systems
  32. Commercial name                          : DTS-HD Master Audio
  33. Codec ID                                 : A_DTS
  34. Duration                                 : 1 h 58 min
  35. Bit rate mode                            : Variable
  36. Bit rate                                 : 2 397 kb/s
  37. Channel(s)                               : 6 channels
  38. Channel layout                           : C L R Ls Rs LFE
  39. Sampling rate                            : 48.0 kHz
  40. Frame rate                               : 93.750 FPS (512 SPF)
  41. Bit depth                                : 16 bits
  42. Compression mode                         : Lossless
  43. Stream size                              : 1.99 GiB (3%)
  44. Title                                    : DTS-HD MA 5.1
  45. Language                                 : English
  46. Default                                  : Yes
  47. Forced                                   : No
  48. Original source medium                   : Blu-ray
  49. Audio #2
  50. ID                                       : 3
  51. Format                                   : AC-3
  52. Format/Info                              : Audio Coding 3
  53. Commercial name                          : Dolby Digital
  54. Codec ID                                 : A_AC3
  55. Duration                                 : 1 h 58 min
  56. Bit rate mode                            : Constant
  57. Bit rate                                 : 640 kb/s
  58. Channel(s)                               : 6 channels
  59. Channel layout                           : L R C LFE Ls Rs
  60. Sampling rate                            : 48.0 kHz
  61. Frame rate                               : 31.250 FPS (1536 SPF)
  62. Compression mode                         : Lossy
  63. Stream size                              : 543 MiB (1%)
  64. Title                                    : DD 5.1
  65. Language                                 : English
  66. Service kind                             : Complete Main
  67. Default                                  : No
  68. Forced                                   : No
  69. Text #1
  70. ID                                       : 4
  71. Format                                   : UTF-8
  72. Codec ID                                 : S_TEXT/UTF8
  73. Codec ID/Info                            : UTF-8 Plain Text
  74. Duration                                 : 1 h 52 min
  75. Bit rate                                 : 40 b/s
  76. Count of elements                        : 1002
  77. Stream size                              : 33.6 KiB (0%)
  78. Title                                    : English-SRT
  79. Language                                 : English
  80. Default                                  : No
  81. Forced                                   : No
  82. Text #2
  83. ID                                       : 5
  84. ID in the original source medium         : 4768 (0x12A0)
  85. Format                                   : PGS
  86. Muxing mode                              : zlib
  87. Codec ID                                 : S_HDMV/PGS
  88. Codec ID/Info                            : Picture based subtitle format used on BDs/HD-DVDs
  89. Duration                                 : 1 h 52 min
  90. Bit rate                                 : 28.7 kb/s
  91. Count of elements                        : 2258
  92. Stream size                              : 23.1 MiB (0%)
  93. Title                                    : English-PGS
  94. Language                                 : English
  95. Default                                  : No
  96. Forced                                   : No
  97. Original source medium                   : Blu-ray
  98. Menu
  99. 00:00:00.000                             : Chapter 01
  100. 00:04:11.084                             : Chapter 02
  101. 00:10:24.582                             : Chapter 03
  102. 00:21:10.602                             : Chapter 04
  103. 00:25:47.337                             : Chapter 05
  104. 00:31:39.272                             : Chapter 06
  105. 00:36:39.155                             : Chapter 07
  106. 00:41:35.117                             : Chapter 08
  107. 00:52:11.628                             : Chapter 09
  108. 00:57:12.512                             : Chapter 10
  109. 01:01:42.990                             : Chapter 11
  110. 01:07:57.782                             : Chapter 12
  111. 01:12:54.787                             : Chapter 13
  112. 01:18:13.605                             : Chapter 14
  113. 01:23:46.146                             : Chapter 15
  114. 01:31:35.198                             : Chapter 16
  115. 01:34:16.525                             : Chapter 17
  116. 01:37:06.570                             : Chapter 18
  117. 01:40:52.504                             : Chapter 19
  118. 01:50:53.313                             : Chapter 20
复制代码







                                       
                                       

                                       
                                       
                                       




Looper.2012.2160p.BluRay.x264.8bit.SDR.DTS-HD.MA.5.1-SWTYBLZ.torrent (86.69 KB)
回复

使用道具 举报

蓝光币
28
发表于 2021-7-23 09:07:58 | 显示全部楼层
感谢大佬分享……虽然这是真滴大,但还是很喜欢……
回复 支持 反对

使用道具 举报

懒得打字嘛,点击右侧快捷回复 【右侧内容,后台自定义】
您需要登录后才可以回帖 登录 | 立即加入

本版积分规则

小黑屋|蓝光电影网 |网站地图 

GMT+8, 2021-8-2 04:31 , Processed in 0.079520 second(s), 37 queries .

Powered by 蓝光电影网

Copyright © 2021,[蓝光电影网] 举报反馈邮箱:kf4k1080#hotmail.com(#[email protected])

免责声明:本站所有资源均收集自互联网,没有提供影片资源存储,也未参与录制、上传。若本站收录的资源涉及您的版权或知识产权或其他利益,请附上版权证明邮件告知,在收到邮件后24小时内删除。

快速回复 返回顶部 返回列表