蓝光电影网

 找回密码
 立即加入
搜索
查看: 251|回复: 1

[2160p] 环形使者/回路杀手 Looper.2012.2160p.BluRay.x265.10bit.SDR.DTS-HD.MA.5.1-SWTYBLZ 61.17GB

[复制链接]
蓝光币
159
发表于 2021-7-20 21:07:28 | 显示全部楼层 |阅读模式


◎译  名 环形使者/回路杀手(台)/时凶猎杀(港)
◎片  名 Looper
◎年  代 2012
◎产  地 美国,中国大陆
◎类  别 动作 / 科幻 / 惊悚
◎语  言 英语,法语,汉语普通话
◎上映日期 2012-09-06(多伦多电影节) / 2012-09-28(美国/中国大陆)
◎豆瓣评分 6.9/10 from 156731 users
◎豆瓣链接 https://movie.douban.com/subject/3179706/
◎片  长 110分钟(中国大陆)
◎导  演 莱恩·约翰逊 Rian Johnson
◎编  剧 莱恩·约翰逊 Rian Johnson
◎主  演 约瑟夫·高登-莱维特 Joseph Gordon-Levitt
       布鲁斯·威利斯 Bruce Willis
       艾米莉·布朗特 Emily Blunt
       保罗·达诺 Paul Dano
       皮尔斯·加格农 Pierce Gagnon
       杰夫·丹尼尔斯 Jeff Daniels
       许晴 Qing Xu
       贾里德·德帕斯夸尔 Jared DePasquale
       大卫·詹森 David Jensen
       科迪·伍德 Cody Wood
       詹姆斯·兰德里·赫伯特 James Landry Hébert
       派珀·佩拉博 Piper Perabo
       诺阿·西甘 Noah Segan
       加瑞特·迪拉胡特 Garret Dillahunt
       尼克·戈麦斯 Nick Gomez
       杰夫·蔡斯 Jeff Chase
       伊恩·帕特里克 Ian Patrick
       马库斯 · 赫斯特 Marcus Hester
       乔恩·阿兹 Jon Eyez
       翠茜·索姆斯 Tracie Thoms
       姜广涛 Guangtao Jiang
◎标  签 科幻 | 美国 | 穿越 | 时空 | 动作 | 2012 | 剧情 | 犯罪
◎简  介


  未来,2044年。时间旅行从被发明的一开始就属于非法,只有当黑帮组织想清理某个特定对象、又不愿意在此世界留下任何痕迹时,才会出动“环形使者”。他们专门负责处决那些被时间传送回彼世界的目标。之所以称为“环形使者”,因为他们最终必须杀死未来的自己——这样才不会给未来主顾留下任何的麻烦。这个过程被称为“封环”。杀手乔(约瑟夫·高登-莱维特 Joseph Gordon-Levitt 饰)是最年轻的环形使者,弹无虚发,然而当他想处决来自未来的自己(布鲁斯·威利斯 Bruce Willis 饰)时,却遭到激烈反抗而失手。老年乔希望杀死未来封环计划中的关键人物——唤雨师,从而改变妻子(许晴 饰)的命运;青年乔在追杀过程中遇到了农场单亲妈妈莎拉(艾米莉·布朗特 Emily Blunt 饰),意外的成为了一对母子的保护人。两个版本的乔在这场改变未来(和现在)的豪赌中各出奇谋,上演了自我的巅峰对决......
◎获奖情况
  第84届美国国家评论协会奖 ?(2013)
  最佳原创剧本 莱恩·约翰逊
  年度佳片
  
  第18届美国评论家选择电影奖 ?(2013)
  最佳动作片(提名)
  动作片最佳男主角(提名) 约瑟夫·高登-莱维特
  动作片最佳女主角(提名) 艾米莉·布朗特
  最佳科幻/恐怖片
  最佳原创剧本(提名) 莱恩·约翰逊
  
  第11届华盛顿影评人协会奖 ?(2012)
  最佳原创剧本 莱恩·约翰逊
  
  第25届芝加哥影评人协会奖 ?(2012)
  最佳女配角(提名) 艾米莉·布朗特
  最佳原创剧本(提名) 莱恩·约翰逊
  
  第12届凤凰城影评人协会奖 ?(2012)
  最佳特技表演(提名)
  1. Video
  2. ID                                       : 1
  3. Format                                   : HEVC
  4. Format/Info                              : High Efficiency Video Coding
  5. Format profile                           : Main [email protected]@High
  6. Codec ID                                 : V_MPEGH/ISO/HEVC
  7. Duration                                 : 1 h 58 min
  8. Bit rate                                 : 70.6 Mb/s
  9. Width                                    : 3 840 pixels
  10. Height                                   : 1 606 pixels
  11. Display aspect ratio                     : 2.40:1
  12. Frame rate mode                          : Constant
  13. Frame rate                               : 23.976 (24000/1001/189150) FPS
  14. Color space                              : YUV
  15. Chroma subsampling                       : 4:2:0
  16. Bit depth                                : 10 bits
  17. Bits/(Pixel*Frame)                       : 0.478
  18. Stream size                              : 58.5 GiB (96%)
  19. Writing library                          : x265 3.0ed72af837053:[Windows][GCC 8.2.0][64 bit] 10bit
  20. Encoding settings                        : cpuid=1111039 / frame-threads=6 / numa-pools=40 / wpp / no-pmode / no-pme / no-psnr / no-ssim / log-level=2 / input-csp=1 / input-res=3840x1606 / interlace=0 / total-frames=170670 / level-idc=51 / high-tier=1 / uhd-bd=0 / ref=3 / no-allow-non-conformance / repeat-headers / annexb / aud / hrd / info / hash=0 / no-temporal-layers / no-open-gop / min-keyint=1 / keyint=24 / gop-lookahead=0 / bframes=4 / b-adapt=2 / b-pyramid / bframe-bias=0 / rc-lookahead=25 / lookahead-slices=4 / scenecut=40 / radl=0 / no-splice / no-intra-refresh / ctu=64 / min-cu-size=8 / no-rect / no-amp / max-tu-size=32 / tu-inter-depth=1 / tu-intra-depth=1 / limit-tu=0 / rdoq-level=0 / dynamic-rd=0.00 / no-ssim-rd / signhide / no-tskip / nr-intra=0 / nr-inter=0 / no-constrained-intra / strong-intra-smoothing / max-merge=2 / limit-refs=3 / no-limit-modes / me=1 / subme=2 / merange=57 / temporal-mvp / weightp / no-weightb / no-analyze-src-pics / deblock=0:0 / no-sao / no-sao-non-deblock / rd=3 / no-early-skip / rskip / no-fast-intra / no-tskip-fast / no-cu-lossless / no-b-intra / no-splitrd-skip / rdpenalty=0 / psy-rd=2.00 / psy-rdoq=0.00 / no-rd-refine / no-lossless / cbqpoffs=0 / crqpoffs=0 / rc=crf / crf=18.0 / qcomp=0.60 / qpstep=4 / stats-write=0 / stats-read=0 / vbv-maxrate=160000 / vbv-bufsize=160000 / vbv-init=0.9 / crf-max=0.0 / crf-min=0.0 / ipratio=1.40 / pbratio=1.30 / aq-mode=1 / aq-strength=1.00 / cutree / zone-count=0 / no-strict-cbr / qg-size=32 / no-rc-grain / qpmax=69 / qpmin=0 / no-const-vbv / sar=1 / overscan=0 / videoformat=5 / range=0 / colorprim=2 / transfer=2 / colormatrix=2 / chromaloc=0 / display-window=0 / max-cll=0,0 / min-luma=0 / max-luma=1023 / log2-max-poc-lsb=8 / vui-timing-info / vui-hrd-info / slices=1 / opt-qp-pps / opt-ref-list-length-pps / no-multi-pass-opt-rps / scenecut-bias=0.05 / no-opt-cu-delta-qp / no-aq-motion / no-hdr / no-hdr-opt / no-dhdr10-opt / no-idr-recovery-sei / analysis-reuse-level=5 / scale-factor=0 / refine-intra=0 / refine-inter=0 / refine-mv=0 / refine-ctu-distortion=0 / no-limit-sao / ctu-info=0 / no-lowpass-dct / refine-analysis-type=0 / copy-pic=1 / max-ausize-factor=1.0 / no-dynamic-refine / no-single-sei / no-hevc-aq / qp-adaptation-range=1.00
  21. Default                                  : Yes
  22. Forced                                   : No

  23. Audio #1
  24. ID                                       : 2
  25. ID in the original source medium         : 4352 (0x1100)
  26. Format                                   : DTS XLL
  27. Format/Info                              : Digital Theater Systems
  28. Commercial name                          : DTS-HD Master Audio
  29. Codec ID                                 : A_DTS
  30. Duration                                 : 1 h 58 min
  31. Bit rate mode                            : Variable
  32. Bit rate                                 : 2 397 kb/s
  33. Channel(s)                               : 6 channels
  34. Channel layout                           : C L R Ls Rs LFE
  35. Sampling rate                            : 48.0 kHz
  36. Frame rate                               : 93.750 FPS (512 SPF)
  37. Bit depth                                : 16 bits
  38. Compression mode                         : Lossless
  39. Stream size                              : 1.99 GiB (3%)
  40. Title                                    : DTS-HD MA 5.1
  41. Language                                 : English
  42. Default                                  : Yes
  43. Forced                                   : No
  44. Original source medium                   : Blu-ray

  45. Audio #2
  46. ID                                       : 3
  47. Format                                   : AC-3
  48. Format/Info                              : Audio Coding 3
  49. Commercial name                          : Dolby Digital
  50. Codec ID                                 : A_AC3
  51. Duration                                 : 1 h 58 min
  52. Bit rate mode                            : Constant
  53. Bit rate                                 : 640 kb/s
  54. Channel(s)                               : 6 channels
  55. Channel layout                           : L R C LFE Ls Rs
  56. Sampling rate                            : 48.0 kHz
  57. Frame rate                               : 31.250 FPS (1536 SPF)
  58. Compression mode                         : Lossy
  59. Stream size                              : 543 MiB (1%)
  60. Title                                    : DD 5.1
  61. Language                                 : English
  62. Service kind                             : Complete Main
  63. Default                                  : No
  64. Forced                                   : No

  65. Text #1
  66. ID                                       : 4
  67. Format                                   : UTF-8
  68. Codec ID                                 : S_TEXT/UTF8
  69. Codec ID/Info                            : UTF-8 Plain Text
  70. Duration                                 : 1 h 52 min
  71. Bit rate                                 : 40 b/s
  72. Count of elements                        : 1002
  73. Stream size                              : 33.6 KiB (0%)
  74. Title                                    : English-SRT
  75. Language                                 : English
  76. Default                                  : No
  77. Forced                                   : No

  78. Text #2
  79. ID                                       : 5
  80. ID in the original source medium         : 4768 (0x12A0)
  81. Format                                   : PGS
  82. Muxing mode                              : zlib
  83. Codec ID                                 : S_HDMV/PGS
  84. Codec ID/Info                            : Picture based subtitle format used on BDs/HD-DVDs
  85. Duration                                 : 1 h 52 min
  86. Bit rate                                 : 28.7 kb/s
  87. Count of elements                        : 2258
  88. Stream size                              : 23.1 MiB (0%)
  89. Title                                    : English-PGS
  90. Language                                 : English
  91. Default                                  : No
  92. Forced                                   : No
  93. Original source medium                   : Blu-ray

  94. Menu
  95. 00:00:00.000                             : Chapter 01
  96. 00:04:11.084                             : Chapter 02
  97. 00:10:24.582                             : Chapter 03
  98. 00:21:10.602                             : Chapter 04
  99. 00:25:47.337                             : Chapter 05
  100. 00:31:39.272                             : Chapter 06
  101. 00:36:39.155                             : Chapter 07
  102. 00:41:35.117                             : Chapter 08
  103. 00:52:11.628                             : Chapter 09
  104. 00:57:12.512                             : Chapter 10
  105. 01:01:42.990                             : Chapter 11
  106. 01:07:57.782                             : Chapter 12
  107. 01:12:54.787                             : Chapter 13
  108. 01:18:13.605                             : Chapter 14
  109. 01:23:46.146                             : Chapter 15
  110. 01:31:35.198                             : Chapter 16
  111. 01:34:16.525                             : Chapter 17
  112. 01:37:06.570                             : Chapter 18
  113. 01:40:52.504                             : Chapter 19
  114. 01:50:53.313                             : Chapter 20
复制代码







                                       
                                       

                                       
                                       
                                       




Looper.2012.2160p.BluRay.x265.10bit.SDR.DTS-HD.MA.5.1-SWTYBLZ.torrent (77.16 KB)
回复

使用道具 举报

蓝光币
116
发表于 2021-7-20 22:17:45 | 显示全部楼层

楼主太厉害了!楼主,电影应该很好看我觉得蓝光电影网真是个好地方!
回复 支持 反对

使用道具 举报

懒得打字嘛,点击右侧快捷回复 【右侧内容,后台自定义】
您需要登录后才可以回帖 登录 | 立即加入

本版积分规则

小黑屋|蓝光电影网 |网站地图 

GMT+8, 2021-8-2 05:27 , Processed in 0.076201 second(s), 37 queries .

Powered by 蓝光电影网

Copyright © 2021,[蓝光电影网] 举报反馈邮箱:kf4k1080#hotmail.com(#[email protected])

免责声明:本站所有资源均收集自互联网,没有提供影片资源存储,也未参与录制、上传。若本站收录的资源涉及您的版权或知识产权或其他利益,请附上版权证明邮件告知,在收到邮件后24小时内删除。

快速回复 返回顶部 返回列表