蓝光电影网

 找回密码
 立即加入
搜索
查看: 390|回复: 4

[2160p] 乱 Ran.1985.JAPANESE.2160p.BluRay.x264.8bit.SDR.DTS-HD.MA.5.1-SWTYBLZ 65.86GB

[复制链接]
蓝光币
159
发表于 2021-7-20 21:07:43 | 显示全部楼层 |阅读模式


◎译  名 Ran/Revolt/乱日本战国时代
◎片  名 乱
◎年  代 1985
◎产  地 日本,法国
◎类  别 剧情 / 动作
◎语  言 日语
◎上映日期 1985-06-01(日本)
◎豆瓣评分 8.9/10 from 68949 users
◎豆瓣链接 https://movie.douban.com/subject/1296196/
◎片  长 162分钟
◎导  演 黑泽明 Akira Kurosawa
◎编  剧 黑泽明 Akira Kurosawa / 小国英雄 Hideo Oguni / 井手雅人 Masato Ide / 威廉·莎士比亚 William Shakespeare
◎主  演 仲代达矢 Tatsuya Nakadai
       寺尾聪 Akira Terao
       根津甚八 Jinpachi Nezu
       隆大介 Daisuke Ry?
       原田美枝子 Mieko Harada
       宫崎美子 Yoshiko Miyazaki
       井川比佐志 Hisashi Igawa
       池畑慎之介 P?ta
       油井昌由树 Masayuki Yui
       加藤和夫 Kazuo Kat?
       松井范雄 Norio Matsui
       伊藤敏八 Toshiya Ito
       儿玉谦次 Kenji Kodama
       野村万斋 Mansai Nomura
       加藤武 Takeshi Kat?
       田崎润 Jun Tazaki
       植木等 Hitoshi Ueki
       头师孝雄 Takao Zushi
       头师佳孝 Yoshitaka Zushi
       天田益男 Masuo Amada
       木村荣 Sakae Kimura
       日比游一 Yuichi Hibi
       加藤精三 Seiz? Kat?
       南條玲子 Reiko Nanjo
       音羽久米子 Kumeko Otowa
       寺岛进 Susumu Terajima
       东乡晴子 Haruko Togo
       渡边哲 Tetsu Watanabe
       宫坂广 Hiroshi Miyasaka
       本多猪四郎  Ishir? Honda
◎标  签 日本 | 战争 | 经典 | 历史 | 武士 | 人性 | 1985 | 剧情
◎简  介


  一文字秀虎(仲代达矢饰)征战多年,手段残忍。在七十岁时,秀虎准备将家业一分为三,由三个儿子分掌大权。他把太郎孝虎(寺尾聪饰)、次郎正虎(根津甚八饰)、三郎直虎(隆大介饰)叫到跟前,以“支箭会断,砚支箭折不断”喻语告诫三兄弟,嘱咐他们要休戚与共。三郎当场把三支箭横在膝上折断,以抗议父亲枉经乱世,而不知人情。秀虎大怒,将三郎驱逐出境。三郎遂到邻国入赘为婿。
  
  而之后一文字家果然被三郎言中,背信弃义的告诫果然成真,父子及兄弟间的纷乱开始,迎接他们的将是什么命运?
◎获奖情况
  第58届奥斯卡金像奖 ?(1986)
  最佳导演(提名) 黑泽明
  最佳摄影(提名) 中井朝一?/?斋藤孝雄?/?上田正治
  最佳艺术指导(提名) 村木忍?/?村木与四郎
  最佳服装设计 和田惠美
  1. Video
  2. ID                                       : 1
  3. Format                                   : AVC
  4. Format/Info                              : Advanced Video Codec
  5. Format profile                           : [email protected]
  6. Format settings                          : CABAC / 5 Ref Frames
  7. Format settings, CABAC                   : Yes
  8. Format settings, Reference frames        : 5 frames
  9. Codec ID                                 : V_MPEG4/ISO/AVC
  10. Duration                                 : 2 h 40 min
  11. Bit rate                                 : 49.4 Mb/s
  12. Width                                    : 3 840 pixels
  13. Height                                   : 2 076 pixels
  14. Display aspect ratio                     : 1.85:1
  15. Frame rate mode                          : Constant
  16. Frame rate                               : 24.000 FPS
  17. Color space                              : YUV
  18. Chroma subsampling                       : 4:2:0
  19. Bit depth                                : 8 bits
  20. Scan type                                : Progressive
  21. Bits/(Pixel*Frame)                       : 0.258
  22. Stream size                              : 55.4 GiB (84%)
  23. Writing library                          : x264 core 157 r2935 545de2f
  24. Encoding settings                        : cabac=1 / ref=5 / deblock=1:-1:-1 / analyse=0x3:0x113 / me=umh / subme=10 / psy=1 / psy_rd=1.00:0.15 / mixed_ref=1 / me_range=48 / chroma_me=1 / trellis=2 / 8x8dct=1 / cqm=0 / deadzone=21,11 / fast_pskip=1 / chroma_qp_offset=-3 / threads=48 / lookahead_threads=4 / sliced_threads=0 / nr=0 / decimate=0 / interlaced=0 / bluray_compat=0 / constrained_intra=0 / bframes=3 / b_pyramid=2 / b_adapt=2 / b_bias=0 / direct=3 / weightb=1 / open_gop=0 / weightp=2 / keyint=250 / keyint_min=24 / scenecut=40 / intra_refresh=0 / rc_lookahead=50 / rc=crf / mbtree=1 / crf=22.0 / qcomp=0.60 / qpmin=0 / qpmax=69 / qpstep=4 / ip_ratio=1.40 / aq=1:1.00
  25. Default                                  : Yes
  26. Forced                                   : No
  27. Audio #1
  28. ID                                       : 2
  29. ID in the original source medium         : 4353 (0x1101)
  30. Format                                   : DTS XLL
  31. Format/Info                              : Digital Theater Systems
  32. Commercial name                          : DTS-HD Master Audio
  33. Codec ID                                 : A_DTS
  34. Duration                                 : 2 h 40 min
  35. Bit rate mode                            : Variable
  36. Bit rate                                 : 4 063 kb/s
  37. Channel(s)                               : 6 channels
  38. Channel layout                           : C L R Ls Rs LFE
  39. Sampling rate                            : 48.0 kHz
  40. Frame rate                               : 93.750 FPS (512 SPF)
  41. Bit depth                                : 24 bits
  42. Compression mode                         : Lossless
  43. Stream size                              : 4.56 GiB (7%)
  44. Title                                    : DTS-HD MA 5.1
  45. Language                                 : Japanese
  46. Default                                  : Yes
  47. Forced                                   : No
  48. Original source medium                   : Blu-ray
  49. Audio #2
  50. ID                                       : 3
  51. Format                                   : AC-3
  52. Format/Info                              : Audio Coding 3
  53. Commercial name                          : Dolby Digital
  54. Codec ID                                 : A_AC3
  55. Duration                                 : 2 h 40 min
  56. Bit rate mode                            : Constant
  57. Bit rate                                 : 640 kb/s
  58. Channel(s)                               : 6 channels
  59. Channel layout                           : L R C LFE Ls Rs
  60. Sampling rate                            : 48.0 kHz
  61. Frame rate                               : 31.250 FPS (1536 SPF)
  62. Compression mode                         : Lossy
  63. Stream size                              : 735 MiB (1%)
  64. Title                                    : DD 5.1
  65. Language                                 : Japanese
  66. Service kind                             : Complete Main
  67. Default                                  : No
  68. Forced                                   : No
  69. Audio #3
  70. ID                                       : 4
  71. ID in the original source medium         : 4355 (0x1103)
  72. Format                                   : DTS XLL
  73. Format/Info                              : Digital Theater Systems
  74. Commercial name                          : DTS-HD Master Audio
  75. Codec ID                                 : A_DTS
  76. Duration                                 : 2 h 40 min
  77. Bit rate mode                            : Variable
  78. Bit rate                                 : 3 795 kb/s
  79. Channel(s)                               : 6 channels
  80. Channel layout                           : C L R Ls Rs LFE
  81. Sampling rate                            : 48.0 kHz
  82. Frame rate                               : 93.750 FPS (512 SPF)
  83. Bit depth                                : 24 bits
  84. Compression mode                         : Lossless
  85. Stream size                              : 4.26 GiB (6%)
  86. Title                                    : DTS-HD MA 5.1
  87. Language                                 : English
  88. Default                                  : No
  89. Forced                                   : No
  90. Original source medium                   : Blu-ray
  91. Audio #4
  92. ID                                       : 5
  93. Format                                   : AC-3
  94. Format/Info                              : Audio Coding 3
  95. Commercial name                          : Dolby Digital
  96. Codec ID                                 : A_AC3
  97. Duration                                 : 2 h 40 min
  98. Bit rate mode                            : Constant
  99. Bit rate                                 : 640 kb/s
  100. Channel(s)                               : 6 channels
  101. Channel layout                           : L R C LFE Ls Rs
  102. Sampling rate                            : 48.0 kHz
  103. Frame rate                               : 31.250 FPS (1536 SPF)
  104. Compression mode                         : Lossy
  105. Stream size                              : 735 MiB (1%)
  106. Title                                    : DD 5.1
  107. Language                                 : English
  108. Service kind                             : Complete Main
  109. Default                                  : No
  110. Forced                                   : No
  111. Text #1
  112. ID                                       : 6
  113. Format                                   : UTF-8
  114. Codec ID                                 : S_TEXT/UTF8
  115. Codec ID/Info                            : UTF-8 Plain Text
  116. Duration                                 : 2 h 35 min
  117. Bit rate                                 : 25 b/s
  118. Count of elements                        : 1239
  119. Stream size                              : 28.7 KiB (0%)
  120. Title                                    : SRT
  121. Language                                 : English
  122. Default                                  : No
  123. Forced                                   : No
  124. Text #2
  125. ID                                       : 7
  126. ID in the original source medium         : 4769 (0x12A1)
  127. Format                                   : PGS
  128. Muxing mode                              : zlib
  129. Codec ID                                 : S_HDMV/PGS
  130. Codec ID/Info                            : Picture based subtitle format used on BDs/HD-DVDs
  131. Duration                                 : 2 h 35 min
  132. Bit rate                                 : 16.1 kb/s
  133. Count of elements                        : 2486
  134. Stream size                              : 17.9 MiB (0%)
  135. Language                                 : English
  136. Default                                  : No
  137. Forced                                   : No
  138. Original source medium                   : Blu-ray
  139. Text #3
  140. ID                                       : 8
  141. ID in the original source medium         : 4768 (0x12A0)
  142. Format                                   : PGS
  143. Muxing mode                              : zlib
  144. Codec ID                                 : S_HDMV/PGS
  145. Codec ID/Info                            : Picture based subtitle format used on BDs/HD-DVDs
  146. Duration                                 : 2 h 35 min
  147. Bit rate                                 : 18.4 kb/s
  148. Count of elements                        : 2476
  149. Stream size                              : 20.5 MiB (0%)
  150. Language                                 : German
  151. Default                                  : No
  152. Forced                                   : No
  153. Original source medium                   : Blu-ray
  154. Text #4
  155. ID                                       : 9
  156. ID in the original source medium         : 4770 (0x12A2)
  157. Format                                   : PGS
  158. Muxing mode                              : zlib
  159. Codec ID                                 : S_HDMV/PGS
  160. Codec ID/Info                            : Picture based subtitle format used on BDs/HD-DVDs
  161. Duration                                 : 2 h 37 min
  162. Bit rate                                 : 15.8 kb/s
  163. Count of elements                        : 2526
  164. Stream size                              : 17.8 MiB (0%)
  165. Language                                 : French
  166. Default                                  : No
  167. Forced                                   : No
  168. Original source medium                   : Blu-ray
  169. Menu
  170. 00:00:00.000                             : Chapter 01
  171. 00:12:09.833                             : Chapter 02
  172. 00:26:00.791                             : Chapter 03
  173. 00:38:47.958                             : Chapter 04
  174. 00:51:34.541                             : Chapter 05
  175. 01:04:10.958                             : Chapter 06
  176. 01:17:57.416                             : Chapter 07
  177. 01:28:56.000                             : Chapter 08
  178. 01:43:53.833                             : Chapter 09
  179. 01:59:30.666                             : Chapter 10
  180. 02:14:42.500                             : Chapter 11
  181. 02:33:02.125                             : Chapter 12
复制代码





                                       
                                       

                                       
                                       
                                       




Ran.1985.JAPANESE.2160p.BluRay.x264.8bit.SDR.DTS-HD.MA.5.1-SWTYBLZ.torrent (83.03 KB)
回复

使用道具 举报

蓝光币
8
发表于 2021-7-21 11:07:20 | 显示全部楼层

楼主发贴辛苦了,谢谢楼主分享!蓝光电影网真是个好地方!
回复 支持 反对

使用道具 举报

蓝光币
117
发表于 2021-7-21 12:51:57 | 显示全部楼层
楼主发贴辛苦了,谢谢楼主分享!我觉得蓝光电影网是注册对了!
回复 支持 反对

使用道具 举报

蓝光币
29
发表于 2021-7-23 06:11:02 | 显示全部楼层
楼主发贴辛苦了,谢谢楼主分享!我觉得蓝光电影网是注册对了!
回复 支持 反对

使用道具 举报

蓝光币
16
发表于 2021-7-23 20:04:12 | 显示全部楼层

楼主太厉害了!楼主,电影应该很好看我觉得蓝光电影网真是个好地方!
回复 支持 反对

使用道具 举报

懒得打字嘛,点击右侧快捷回复 【右侧内容,后台自定义】
您需要登录后才可以回帖 登录 | 立即加入

本版积分规则

小黑屋|蓝光电影网 |网站地图 

GMT+8, 2021-8-2 05:01 , Processed in 0.080348 second(s), 35 queries .

Powered by 蓝光电影网

Copyright © 2021,[蓝光电影网] 举报反馈邮箱:kf4k1080#hotmail.com(#[email protected])

免责声明:本站所有资源均收集自互联网,没有提供影片资源存储,也未参与录制、上传。若本站收录的资源涉及您的版权或知识产权或其他利益,请附上版权证明邮件告知,在收到邮件后24小时内删除。

快速回复 返回顶部 返回列表