找回密码

蓝光电影网

查看: 11|回复: 0

[剧情] Just Let Go/天人試煉 Just.Let.Go.2015.1080p.AMZN.WEBRip.DDP5.1.x264-iKA 5.08GB

[复制链接]
蓝光币
382
发表于 2021-8-20 00:35:35 | 显示全部楼层 |阅读模式


◎译  名 Just Let Go / 天人試煉(台)
◎片  名 巨大的饶恕
◎年  代 2015
◎产  地 美国
◎类  别 剧情
◎语  言 英语
◎上映日期 2015-10-09(美国)
◎IMDb评分  6.9/10 from 238 users
◎IMDb链接  https://www.imdb.com/title/tt3196830
◎豆瓣评分 0/10 from 0 users
◎豆瓣链接 https://movie.douban.com/subject/27169604/
◎导  演 Christopher S. Clark / Patrick Henry Parker
◎编  剧 Christopher S. Clark
◎主  演 亨利·伊安·库斯克 Henry Ian Cusick
       布伦达·瓦卡罗 Brenda Vaccaro
       Sam Sorbo
       Jacob Buster
       Paris Warner

◎标  签 人性 | 饶恕 | 美国 | 剧情 | 美國 | 美国电影 | 110 | 电影
◎简  介

  
  "在2007年2月的一个严寒的夜晚,一位父亲开着车带着他两个孩子以及他怀孕的妻子进来散心,但是正当他们高兴地享用着幸运美好的家庭时光,一辆车却毫无预兆地冲向了他们,这份美幸亏一瞬间化为乌有,而驾驶这辆汽车的是一个年仅17岁且满身酒气的少年,而这个家庭和这个少年的命运由此被完全地改变了。父亲、怀孕的妻子以及他的两个孩子统统躺在地上,昏迷着,而那位醉酒司机也是醉醺醺地晕在车里。
  过了一会,父亲克里斯·威廉稍稍苏醒了,坐在他那辆几近报废的车上,他回忆起了刚刚车祸的一瞬间,再看到被那辆突如其来的车撞死的妻子、他们未诞生的孩子、他9岁大的女儿以及11岁大的儿子的时辰,他变得异常冷静,没有埋怨,没有愤慨,没有恸哭,而是挑选了饶恕。
  虽然民气中固然有着阴晦面,有着报复他人的偏向,可是当面临灾难、灾难的时辰,一小我却更偏向于挑选饶恕他人,而不是报复他人,克里斯·威廉的故事就是在论述这一事理,虽然他的故事是一种电影艺术手法上的夸张,可是这个故事是在告诉众人:当你以巨大的饶恕之心面临这个天下的时辰,你的希望、爱与饶恕将会克服一切。@www.aixiaoju.com
  1. Video
  2. ID                                       : 1
  3. Format                                   : AVC
  4. Format/Info                              : Advanced Video Codec
  5. Format profile                           : [email protected]
  6. Format settings                          : CABAC / 4 Ref Frames
  7. Format settings, CABAC                   : Yes
  8. Format settings, Reference frames        : 4 frames
  9. Codec ID                                 : V_MPEG4/ISO/AVC
  10. Duration                                 : 1 h 46 min
  11. Bit rate mode                            : Constant
  12. Bit rate                                 : 6 176 kb/s
  13. Nominal bit rate                         : 10 000 kb/s
  14. Width                                    : 1 920 pixels
  15. Height                                   : 1 040 pixels
  16. Display aspect ratio                     : 1.85:1
  17. Frame rate mode                          : Constant
  18. Frame rate                               : 23.976 (24000/1001/189150) FPS
  19. Color space                              : YUV
  20. Chroma subsampling                       : 4:2:0
  21. Bit depth                                : 8 bits
  22. Scan type                                : Progressive
  23. Bits/(Pixel*Frame)                       : 0.129
  24. Stream size                              : 4.61 GiB (91%)
  25. Default                                  : Yes
  26. Forced                                   : No
  27. Color range                              : Limited
  28. Color primaries                          : BT.709
  29. Transfer characteristics                 : BT.709
  30. Matrix coefficients                      : BT.709
  31. Audio
  32. ID                                       : 2
  33. Format                                   : E-AC-3
  34. Format/Info                              : Enhanced AC-3
  35. Commercial name                          : Dolby Digital Plus
  36. Codec ID                                 : A_EAC3
  37. Duration                                 : 1 h 46 min
  38. Bit rate mode                            : Constant
  39. Bit rate                                 : 640 kb/s
  40. Channel(s)                               : 6 channels
  41. Channel layout                           : L R C LFE Ls Rs
  42. Sampling rate                            : 48.0 kHz
  43. Frame rate                               : 31.250 FPS (1536 SPF)
  44. Compression mode                         : Lossy
  45. Stream size                              : 489 MiB (9%)
  46. Language                                 : English
  47. Service kind                             : Complete Main
  48. Default                                  : Yes
  49. Forced                                   : No
  50. Text
  51. ID                                       : 3
  52. Format                                   : UTF-8
  53. Codec ID                                 : S_TEXT/UTF8
  54. Codec ID/Info                            : UTF-8 Plain Text
  55. Duration                                 : 1 h 46 min
  56. Bit rate                                 : 57 b/s
  57. Count of elements                        : 1510
  58. Stream size                              : 44.8 KiB (0%)
  59. Title                                    : SDH
  60. Language                                 : English
  61. Default                                  : No
  62. Forced                                   : No
复制代码






                                       
                                       

                                       
                                       
                                       




回复

使用道具 举报

懒得打字嘛,点击右侧快捷回复 【右侧内容,后台自定义】
您需要登录后才可以回帖 登录 | 立即加入

本版积分规则

Archiver|小黑屋| 蓝光电影网 |网站地图

Copyright © 2021 Comsenz Inc. Powered by 蓝光电影网

蓝光电影网

本站内容由用户自主分享和转载自互联网,转载目的在于传递更多信息,并不代表本网赞同其观点和对其真实性负责。

如有侵权、违反国家法律政策行为,请联系我们,我们会第一时间及时清除和处理!

举报反馈邮箱:[email protected]

快速回复 返回顶部 返回列表