找回密码

蓝光电影网

查看: 11|回复: 0

[剧情] 小心间隙 Mind.the.Gap.2007.SWEDISH.1080p.WEBRip.DD5.1.x264-NOGRP 3.88GB

[复制链接]
蓝光币
382
发表于 2021-8-20 00:35:45 | 显示全部楼层 |阅读模式


◎译  名 谨慎间隙 / Mind The Gap
◎片  名 Se upp f?r d?rarna
◎年  代 2007
◎产  地 瑞典
◎类  别 剧情 / 笑剧
◎语  言 瑞典语
◎上映日期 2007-02-16
◎IMDb评分  5.1/10 from 1866 users
◎IMDb链接  https://www.imdb.com/title/tt0959342
◎豆瓣评分 0/10 from 0 users
◎豆瓣链接 https://movie.douban.com/subject/3281032/
◎片  长 Sweden: 103 分钟
◎导  演 Helena Bergstr?m
◎主  演 Nina Zanjani
       Rakel W?rml?nder
       Korhan Abay
       Zinat Pirzadeh
       Dan Ekborg

◎标  签 瑞典 | 北欧 | 电影 | 剧情 | Sweden | 温情 | 家庭 | 笑剧
◎简  介

  
  兩個生活布景大分歧的女孩申請上差人學校,經過嚴格的測試、亂七八糟的關係與奥妙的親情互動,她們的友誼也面臨挑戰。由海倫娜柏格史壯執導,曾榮獲2012年瑞典金甲蟲獎最好女配角提名。
  1. Video
  2. ID                                       : 1
  3. Format                                   : AVC
  4. Format/Info                              : Advanced Video Codec
  5. Format profile                           : [email protected]
  6. Format settings                          : CABAC / 4 Ref Frames
  7. Format settings, CABAC                   : Yes
  8. Format settings, Reference frames        : 4 frames
  9. Codec ID                                 : V_MPEG4/ISO/AVC
  10. Duration                                 : 1 h 39 min
  11. Bit rate                                 : 5 217 kb/s
  12. Width                                    : 1 920 pixels
  13. Height                                   : 1 080 pixels
  14. Display aspect ratio                     : 16:9
  15. Frame rate mode                          : Constant
  16. Frame rate                               : 25.000 FPS
  17. Color space                              : YUV
  18. Chroma subsampling                       : 4:2:0
  19. Bit depth                                : 8 bits
  20. Scan type                                : Progressive
  21. Bits/(Pixel*Frame)                       : 0.101
  22. Stream size                              : 3.61 GiB (93%)
  23. Default                                  : Yes
  24. Forced                                   : No
  25. Color range                              : Limited
  26. Color primaries                          : BT.709
  27. Transfer characteristics                 : BT.709
  28. Matrix coefficients                      : BT.709
  29. Audio
  30. ID                                       : 2
  31. Format                                   : AC-3
  32. Format/Info                              : Audio Coding 3
  33. Commercial name                          : Dolby Digital
  34. Codec ID                                 : A_AC3
  35. Duration                                 : 1 h 39 min
  36. Bit rate mode                            : Constant
  37. Bit rate                                 : 384 kb/s
  38. Channel(s)                               : 6 channels
  39. Channel layout                           : L R C LFE Ls Rs
  40. Sampling rate                            : 48.0 kHz
  41. Frame rate                               : 31.250 FPS (1536 SPF)
  42. Bit depth                                : 16 bits
  43. Compression mode                         : Lossy
  44. Stream size                              : 272 MiB (7%)
  45. Language                                 : Swedish
  46. Service kind                             : Complete Main
  47. Default                                  : Yes
  48. Forced                                   : No
  49. Text #1
  50. ID                                       : 3
  51. Format                                   : UTF-8
  52. Codec ID                                 : S_TEXT/UTF8
  53. Codec ID/Info                            : UTF-8 Plain Text
  54. Duration                                 : 1 h 35 min
  55. Bit rate                                 : 50 b/s
  56. Count of elements                        : 886
  57. Stream size                              : 34.9 KiB (0%)
  58. Language                                 : English
  59. Default                                  : Yes
  60. Forced                                   : No
  61. Text #2
  62. ID                                       : 4
  63. Format                                   : UTF-8
  64. Codec ID                                 : S_TEXT/UTF8
  65. Codec ID/Info                            : UTF-8 Plain Text
  66. Duration                                 : 1 h 35 min
  67. Bit rate                                 : 51 b/s
  68. Count of elements                        : 795
  69. Stream size                              : 36.1 KiB (0%)
  70. Language                                 : Swedish
  71. Default                                  : No
  72. Forced                                   : No
  73. Text #3
  74. ID                                       : 5
  75. Format                                   : UTF-8
  76. Codec ID                                 : S_TEXT/UTF8
  77. Codec ID/Info                            : UTF-8 Plain Text
  78. Duration                                 : 1 h 30 min
  79. Bit rate                                 : 2 b/s
  80. Count of elements                        : 41
  81. Stream size                              : 1.68 KiB (0%)
  82. Language                                 : Swedish
  83. Default                                  : No
  84. Forced                                   : Yes
  85. Menu
  86. 00:00:00.000                             : en:Chapter 01
  87. 00:01:38.680                             : en:Chapter 02
  88. 00:05:39.640                             : en:Chapter 03
  89. 00:09:31.960                             : en:Chapter 04
  90. 00:14:31.000                             : en:Chapter 05
  91. 00:21:10.840                             : en:Chapter 06
  92. 00:27:19.960                             : en:Chapter 07
  93. 00:30:39.640                             : en:Chapter 08
  94. 00:35:02.680                             : en:Chapter 09
  95. 00:42:29.080                             : en:Chapter 10
  96. 00:48:54.200                             : en:Chapter 11
  97. 00:53:56.520                             : en:Chapter 12
  98. 01:00:42.120                             : en:Chapter 13
  99. 01:07:38.280                             : en:Chapter 14
  100. 01:16:17.640                             : en:Chapter 15
  101. 01:20:23.880                             : en:Chapter 16
  102. 01:28:14.760                             : en:Chapter 17
  103. 01:35:43.080                             : en:Chapter 18
复制代码





                                       
                                       

                                       
                                       
                                       




回复

使用道具 举报

懒得打字嘛,点击右侧快捷回复 【右侧内容,后台自定义】
您需要登录后才可以回帖 登录 | 立即加入

本版积分规则

Archiver|小黑屋| 蓝光电影网 |网站地图

Copyright © 2021 Comsenz Inc. Powered by 蓝光电影网

蓝光电影网

本站内容由用户自主分享和转载自互联网,转载目的在于传递更多信息,并不代表本网赞同其观点和对其真实性负责。

如有侵权、违反国家法律政策行为,请联系我们,我们会第一时间及时清除和处理!

举报反馈邮箱:[email protected]

快速回复 返回顶部 返回列表