找回密码

蓝光电影网

查看: 21|回复: 0

[剧情] 人海奇花/抢购獠牙 Shopping.for.Fangs.1997.1080p.AMZN.WEBRip.DDP2.0.x264-alfaHD 6.31GB

[复制链接]
蓝光币
382
发表于 2021-8-20 00:35:50 | 显示全部楼层 |阅读模式


◎译  名 人海奇花 / 抢购獠牙 / 毒牙 / 选购獠牙
◎片  名 Shopping for Fangs
◎年  代 1997
◎产  地 加拿大 / 美国
◎类  别 剧情
◎语  言 英语
◎上映日期 1997-09-09
◎IMDb评分  5.8/10 from 166 users
◎IMDb链接  https://www.imdb.com/title/tt0122710
◎豆瓣评分 0/10 from 0 users
◎豆瓣链接 https://movie.douban.com/subject/1888123/
◎导  演 李孟熙 Quentin Lee / 林诣彬 Justin Lin
◎编  剧 Dan Alvarado / 李孟熙 Quentin Lee
◎主  演 Radmar Agana Jao
       Jeanne Chinn
       Clint Jung

◎标  签 加拿大 | 美国 | 林诣彬 | 电影 | JohnCho | 1997 | 加拿大电影 | JeanneChinn
◎简  介

  
  菲尔的忧心是忽然发现他的毛发发狂一样的发展,一小时不修理就脸孔全非!年轻的家庭妇女凯瑟琳一天掉了钱包、呼机和手提,尔后,她就不竭的接到一个陌生女子打来的电话,这个女子就是一天24小时带着墨镜的特瑞。
  该片试图揭穿片中人物的心里天下,当发现一小我的另一面时,常常让人体味到实在,在男女仆人公怪僻、古怪的言语与行动中,使观众堕入唯一无二的恐惧感里。
  1. Video
  2. ID                                       : 1
  3. Format                                   : AVC
  4. Format/Info                              : Advanced Video Codec
  5. Format profile                           : [email protected]
  6. Format settings                          : CABAC / 4 Ref Frames
  7. Format settings, CABAC                   : Yes
  8. Format settings, Reference frames        : 4 frames
  9. Codec ID                                 : V_MPEG4/ISO/AVC
  10. Duration                                 : 1 h 30 min
  11. Bit rate mode                            : Constant
  12. Bit rate                                 : 10 000 kb/s
  13. Width                                    : 1 920 pixels
  14. Height                                   : 1 040 pixels
  15. Display aspect ratio                     : 1.85:1
  16. Frame rate mode                          : Constant
  17. Frame rate                               : 23.976 (24000/1001/189150) FPS
  18. Color space                              : YUV
  19. Chroma subsampling                       : 4:2:0
  20. Bit depth                                : 8 bits
  21. Scan type                                : Progressive
  22. Bits/(Pixel*Frame)                       : 0.209
  23. Stream size                              : 6.17 GiB (98%)
  24. Default                                  : Yes
  25. Forced                                   : No
  26. Color range                              : Limited
  27. Color primaries                          : BT.709
  28. Transfer characteristics                 : BT.709
  29. Matrix coefficients                      : BT.709
  30. Audio
  31. ID                                       : 2
  32. Format                                   : E-AC-3
  33. Format/Info                              : Enhanced AC-3
  34. Commercial name                          : Dolby Digital Plus
  35. Codec ID                                 : A_EAC3
  36. Duration                                 : 1 h 30 min
  37. Bit rate mode                            : Constant
  38. Bit rate                                 : 224 kb/s
  39. Channel(s)                               : 2 channels
  40. Channel layout                           : L R
  41. Sampling rate                            : 48.0 kHz
  42. Frame rate                               : 31.250 FPS (1536 SPF)
  43. Compression mode                         : Lossy
  44. Stream size                              : 145 MiB (2%)
  45. Service kind                             : Complete Main
  46. Default                                  : Yes
  47. Forced                                   : No
  48. Text #1
  49. ID                                       : 3
  50. Format                                   : UTF-8
  51. Codec ID                                 : S_TEXT/UTF8
  52. Codec ID/Info                            : UTF-8 Plain Text
  53. Duration                                 : 1 h 28 min
  54. Bit rate                                 : 46 b/s
  55. Count of elements                        : 1176
  56. Stream size                              : 30.0 KiB (0%)
  57. Language                                 : English
  58. Default                                  : No
  59. Forced                                   : No
  60. Text #2
  61. ID                                       : 4
  62. Format                                   : UTF-8
  63. Codec ID                                 : S_TEXT/UTF8
  64. Codec ID/Info                            : UTF-8 Plain Text
  65. Duration                                 : 1 h 28 min
  66. Bit rate                                 : 47 b/s
  67. Count of elements                        : 1176
  68. Stream size                              : 30.6 KiB (0%)
  69. Title                                    : SDH
  70. Language                                 : English
  71. Default                                  : No
  72. Forced                                   : No
复制代码





                                       
                                       

                                       
                                       
                                       




回复

使用道具 举报

懒得打字嘛,点击右侧快捷回复 【右侧内容,后台自定义】
您需要登录后才可以回帖 登录 | 立即加入

本版积分规则

Archiver|小黑屋| 蓝光电影网 |网站地图

Copyright © 2021 Comsenz Inc. Powered by 蓝光电影网

蓝光电影网

本站内容由用户自主分享和转载自互联网,转载目的在于传递更多信息,并不代表本网赞同其观点和对其真实性负责。

如有侵权、违反国家法律政策行为,请联系我们,我们会第一时间及时清除和处理!

举报反馈邮箱:[email protected]

快速回复 返回顶部 返回列表