找回密码

蓝光电影网

查看: 10|回复: 0

[剧情] 黑色十一月 Black.November.2012.1080p.AMZN.WEBRip.DDP5.1.x264-alfaHD 6.89GB

[复制链接]
蓝光币
382
发表于 2021-8-20 00:36:35 | 显示全部楼层 |阅读模式


◎译  名 黑色十一月 / Black November: Struggle for the Niger Delta / Rise Up
◎片  名 Black November
◎年  代 2012
◎产  地 美国
◎类  别 剧情
◎语  言 英语
◎上映日期 2012-05-08(华盛稽首映) / 2015-01-09(美国)
◎IMDb评分  5.3/10 from 521 users
◎IMDb链接  https://www.imdb.com/title/tt2147225
◎豆瓣评分 0/10 from 0 users
◎豆瓣链接 https://movie.douban.com/subject/10546484/
◎片  长 95分钟
◎导  演 Jeta Amata
◎编  剧 Jeta Amata
◎主  演 莎拉·韦恩·卡丽丝 Sarah Wayne Callies
       米基·洛克 Mickey Rourke
       金·贝辛格 Kim Basinger
       安·海切 Anne Heche
       薇薇卡·福克斯 Vivica A. Fox
       Hakeem Kae-Kazim
       Razaaq Adoti
       乔舒华·费雷迪克·史姑娘 Joshua Fredric Smith
       Nathin Butler

◎简  介

  
  A volatile, oil-rich Nigerian community wages war against their corrupt government and a multi-national oil corporation to protect their land from being destroyed by excessive drilling and spills. To seek justice, a rebel organization kidnaps an American oil executive and demands that his corporation end the destruction and pollution. Inspired by true events, Black November is the gripping story of how a community rises up and takes drastic measures to make sure their voices are heard.
  1. Video
  2. ID                                       : 1
  3. Format                                   : AVC
  4. Format/Info                              : Advanced Video Codec
  5. Format profile                           : [email protected]
  6. Format settings                          : CABAC / 4 Ref Frames
  7. Format settings, CABAC                   : Yes
  8. Format settings, Reference frames        : 4 frames
  9. Format settings, GOP                     : M=4, N=48
  10. Codec ID                                 : V_MPEG4/ISO/AVC
  11. Duration                                 : 1 h 36 min
  12. Bit rate mode                            : Constant
  13. Bit rate                                 : 10 000 kb/s
  14. Width                                    : 1 920 pixels
  15. Height                                   : 816 pixels
  16. Display aspect ratio                     : 2.35:1
  17. Frame rate mode                          : Constant
  18. Frame rate                               : 23.976 (24000/1001/189150) FPS
  19. Color space                              : YUV
  20. Chroma subsampling                       : 4:2:0
  21. Bit depth                                : 8 bits
  22. Scan type                                : Progressive
  23. Bits/(Pixel*Frame)                       : 0.266
  24. Stream size                              : 6.46 GiB (94%)
  25. Language                                 : English
  26. Default                                  : Yes
  27. Forced                                   : No
  28. Color range                              : Limited
  29. Color primaries                          : BT.709
  30. Transfer characteristics                 : BT.709
  31. Matrix coefficients                      : BT.709
  32. Audio
  33. ID                                       : 2
  34. Format                                   : E-AC-3
  35. Format/Info                              : Enhanced AC-3
  36. Commercial name                          : Dolby Digital Plus
  37. Codec ID                                 : A_EAC3
  38. Duration                                 : 1 h 36 min
  39. Bit rate mode                            : Constant
  40. Bit rate                                 : 640 kb/s
  41. Channel(s)                               : 6 channels
  42. Channel layout                           : L R C LFE Ls Rs
  43. Sampling rate                            : 48.0 kHz
  44. Frame rate                               : 31.250 FPS (1536 SPF)
  45. Compression mode                         : Lossy
  46. Stream size                              : 444 MiB (6%)
  47. Language                                 : English
  48. Service kind                             : Complete Main
  49. Default                                  : Yes
  50. Forced                                   : No
  51. Text #1
  52. ID                                       : 3
  53. Format                                   : UTF-8
  54. Codec ID                                 : S_TEXT/UTF8
  55. Codec ID/Info                            : UTF-8 Plain Text
  56. Duration                                 : 1 h 33 min
  57. Bit rate                                 : 51 b/s
  58. Count of elements                        : 1028
  59. Stream size                              : 35.5 KiB (0%)
  60. Language                                 : English
  61. Default                                  : No
  62. Forced                                   : No
  63. Text #2
  64. ID                                       : 4
  65. Format                                   : UTF-8
  66. Codec ID                                 : S_TEXT/UTF8
  67. Codec ID/Info                            : UTF-8 Plain Text
  68. Duration                                 : 1 h 35 min
  69. Bit rate                                 : 57 b/s
  70. Count of elements                        : 1216
  71. Stream size                              : 40.5 KiB (0%)
  72. Title                                    : SDH
  73. Language                                 : English
  74. Default                                  : No
  75. Forced                                   : No
复制代码






                                       
                                       

                                       
                                       
                                       




回复

使用道具 举报

懒得打字嘛,点击右侧快捷回复 【右侧内容,后台自定义】
您需要登录后才可以回帖 登录 | 立即加入

本版积分规则

Archiver|小黑屋| 蓝光电影网 |网站地图

Copyright © 2021 Comsenz Inc. Powered by 蓝光电影网

蓝光电影网

本站内容由用户自主分享和转载自互联网,转载目的在于传递更多信息,并不代表本网赞同其观点和对其真实性负责。

如有侵权、违反国家法律政策行为,请联系我们,我们会第一时间及时清除和处理!

举报反馈邮箱:[email protected]

快速回复 返回顶部 返回列表