找回密码

蓝光电影网

查看: 10|回复: 0

[剧情] 赌博 Even.Money.2006.1080p.AMZN.WEBRip.DDP2.0.x264-alfaHD 9.59GB

[复制链接]
蓝光币
382
发表于 2021-8-20 00:36:43 | 显示全部楼层 |阅读模式


◎译  名 赌博
◎片  名 Even Money
◎年  代 2006
◎产  地 美国 / 德国
◎类  别 剧情 / 犯罪
◎语  言 英语
◎上映日期 2006-03
◎IMDb评分  5.9/10 from 4256 users
◎IMDb链接  https://www.imdb.com/title/tt0404163
◎豆瓣评分 6.5/10 from 105 users
◎豆瓣链接 https://movie.douban.com/subject/1472356/
◎片  长 113 分钟
◎导  演 马克·雷戴尔 Mark Rydell
◎编  剧 Robert Tannen
◎主  演 金·贝辛格 Kim Basinger
       凯尔希·格兰莫 Kelsey Grammer
       Michael Eaves
       福里斯特·惠特克 Forest Whitaker
       特夏斯·巴特尔 Texas Battle
       尼克·卡农 Nick Cannon
       查尔斯·罗宾逊 Charles Robinson
       雷·利奥塔 Ray Liotta
       Carson Brown
       杰·摩尔 Jay Mohr
       Grant Sullivan
       Jamie Marsh
       Shanelle Workman
       蒂姆·罗斯 Tim Roth
       Suzanne Covington
       丹尼·德维托 Danny DeVito
       卡拉·古奇诺 Carla Gugino
       卡珊德拉·赫本 Cassandra Hepburn
       Robert McEvilly
       克里斯多夫·莱德尔 Christopher Rydell
       罗伯特·皮特斯 Robert Peters
       罗伯特·米亚诺 Robert Miano
       帕里莎·菲兹-亨利 Parisa Fitz-Henley
       马克·雷戴尔 Mark Rydell
       Erin Batsford
       Felicia Burton
       Brianna Burton
       维多丽雅查拉亚 Victoria Chalaya
       Kyle Clinton Cowan
       Rennie Cowan
       Laurianne Jameson
       劳丽·李 Laurie Lee
       艾赛亚·穆斯塔法 Isaiah Mustafa
       尼基塔·拉姆齐 Nikita Ramsey

◎标  签 美国 | 人性 | TimRoth | 犯罪 | 伦理 | 美国电影 | 电影 | 2006
◎简  介

  
  被赌博扑灭了自己的生活的三个陌生人走到一路,因其命运也被毗连起来。
  1. Video
  2. ID                                       : 1
  3. Format                                   : AVC
  4. Format/Info                              : Advanced Video Codec
  5. Format profile                           : [email protected]
  6. Format settings                          : CABAC / 4 Ref Frames
  7. Format settings, CABAC                   : Yes
  8. Format settings, Reference frames        : 4 frames
  9. Codec ID                                 : V_MPEG4/ISO/AVC
  10. Duration                                 : 1 h 52 min
  11. Bit rate                                 : 11.9 Mb/s
  12. Width                                    : 1 920 pixels
  13. Height                                   : 1 040 pixels
  14. Display aspect ratio                     : 1.85:1
  15. Frame rate mode                          : Constant
  16. Frame rate                               : 24.000 FPS
  17. Color space                              : YUV
  18. Chroma subsampling                       : 4:2:0
  19. Bit depth                                : 8 bits
  20. Scan type                                : Progressive
  21. Bits/(Pixel*Frame)                       : 0.249
  22. Stream size                              : 9.41 GiB (98%)
  23. Default                                  : Yes
  24. Forced                                   : No
  25. Color range                              : Limited
  26. Color primaries                          : BT.709
  27. Transfer characteristics                 : BT.709
  28. Matrix coefficients                      : BT.709
  29. Audio
  30. ID                                       : 2
  31. Format                                   : E-AC-3
  32. Format/Info                              : Enhanced AC-3
  33. Commercial name                          : Dolby Digital Plus
  34. Codec ID                                 : A_EAC3
  35. Duration                                 : 1 h 52 min
  36. Bit rate mode                            : Constant
  37. Bit rate                                 : 224 kb/s
  38. Channel(s)                               : 2 channels
  39. Channel layout                           : L R
  40. Sampling rate                            : 48.0 kHz
  41. Frame rate                               : 31.250 FPS (1536 SPF)
  42. Compression mode                         : Lossy
  43. Stream size                              : 181 MiB (2%)
  44. Language                                 : English
  45. Service kind                             : Complete Main
  46. Default                                  : Yes
  47. Forced                                   : No
  48. Text #1
  49. ID                                       : 3
  50. Format                                   : UTF-8
  51. Codec ID                                 : S_TEXT/UTF8
  52. Codec ID/Info                            : UTF-8 Plain Text
  53. Duration                                 : 1 h 47 min
  54. Bit rate                                 : 63 b/s
  55. Count of elements                        : 2169
  56. Stream size                              : 50.0 KiB (0%)
  57. Language                                 : English
  58. Default                                  : No
  59. Forced                                   : No
  60. Text #2
  61. ID                                       : 4
  62. Format                                   : UTF-8
  63. Codec ID                                 : S_TEXT/UTF8
  64. Codec ID/Info                            : UTF-8 Plain Text
  65. Duration                                 : 1 h 49 min
  66. Bit rate                                 : 67 b/s
  67. Count of elements                        : 2382
  68. Stream size                              : 54.4 KiB (0%)
  69. Title                                    : SDH
  70. Language                                 : English
  71. Default                                  : No
  72. Forced                                   : No
复制代码





                                       
                                       

                                       
                                       
                                       




回复

使用道具 举报

懒得打字嘛,点击右侧快捷回复 【右侧内容,后台自定义】
您需要登录后才可以回帖 登录 | 立即加入

本版积分规则

Archiver|小黑屋| 蓝光电影网 |网站地图

Copyright © 2021 Comsenz Inc. Powered by 蓝光电影网

蓝光电影网

本站内容由用户自主分享和转载自互联网,转载目的在于传递更多信息,并不代表本网赞同其观点和对其真实性负责。

如有侵权、违反国家法律政策行为,请联系我们,我们会第一时间及时清除和处理!

举报反馈邮箱:[email protected]

快速回复 返回顶部 返回列表