找回密码

蓝光电影网

查看: 19|回复: 0

[剧情] 全金属外壳/烈血焚城 Full.Metal.Jacket.1987.Directors.AR.1080p.HMAX.WEBRip.DD5.1.x264-alfaHD 7.08GB

[复制链接]
蓝光币
386
发表于 2021-8-20 00:36:47 | 显示全部楼层 |阅读模式


◎译  名 全金属外壳 / 烈血焚城(港) / 金甲战士 / 金甲军队(台)
◎片  名 Full Metal Jacket
◎年  代 1987
◎产  地 英国 / 美国
◎类  别 剧情 / 战争
◎语  言 英语 / 越南语
◎上映日期 1987-06-17
◎IMDb评分  8.3/10 from 652781 users
◎IMDb链接  https://www.imdb.com/title/tt0093058
◎豆瓣评分 8.6/10 from 96005 users
◎豆瓣链接 https://movie.douban.com/subject/1300055/
◎片  长 116 分钟
◎导  演 Stanley Kubrick
◎编  剧 Gustav Hasford / Michael Herr / Stanley Kubrick
◎主  演 Adam Baldwin
       Matthew Modine
       Vincent D'Onofrio
       R. Lee Ermey
       Kevyn Major Howard

◎标  签 战争 | 越战 | 美国 | 库布里克 | 斯坦利·库布里克 | StanleyKubrick | 美国电影 | 1987
◎简  介

  
  越战时代,美军大量征兵。多量年轻人应征参军,在新军营接管“残暴”的练习。“傻瓜”比尔活动神经不发财,经常出错而扳连一切人一路受罚。“小丑”(马修?莫迪恩 Matthew Modine 饰)受命帮助比尔,但比尔还是老出毛病,扳连其他人。大师忍无可忍下打了他一顿,比尔今后变得精神模糊,在新军营结业前夜枪杀教官后吞枪自杀。
  “小丑”随后分到了军队消息组。他在采访中看到了那时的同伴们都已经变得麻痹、残暴。一次,“小丑”随“牛仔”履利用命时,遭到越共狙击手伏击,“牛仔”亦不幸中弹身亡。众人经过一番搜索,击伤了狙击手。“小丑”发现狙击手竟是一个年轻少女。有人发起留下她挣扎而死,“小丑”在少女“杀了我”的请求声中,扣下了扳机。
◎获奖情况  
  第60届奥斯卡金像奖(1988)
  最好改编剧本(提名) 迈克尔·海尔 / 斯坦利·库布里克 / 古斯塔夫·哈斯福德
  第12届日本电影学院奖(1989)
  最好外语片(提名)
  1. Video
  2. ID                                       : 1
  3. Format                                   : AVC
  4. Format/Info                              : Advanced Video Codec
  5. Format profile                           : [email protected]
  6. Format settings                          : CABAC / 4 Ref Frames
  7. Format settings, CABAC                   : Yes
  8. Format settings, Reference frames        : 4 frames
  9. Codec ID                                 : V_MPEG4/ISO/AVC
  10. Duration                                 : 1 h 56 min
  11. Bit rate mode                            : Variable
  12. Bit rate                                 : 8 243 kb/s
  13. Maximum bit rate                         : 12.4 Mb/s
  14. Width                                    : 1 440 pixels
  15. Height                                   : 1 080 pixels
  16. Display aspect ratio                     : 4:3
  17. Frame rate mode                          : Constant
  18. Frame rate                               : 23.976 (24000/1001/189150) FPS
  19. Color space                              : YUV
  20. Chroma subsampling                       : 4:2:0
  21. Bit depth                                : 8 bits
  22. Scan type                                : Progressive
  23. Bits/(Pixel*Frame)                       : 0.221
  24. Stream size                              : 6.71 GiB (95%)
  25. Default                                  : Yes
  26. Forced                                   : No
  27. Audio #1
  28. ID                                       : 2
  29. Format                                   : AC-3
  30. Format/Info                              : Audio Coding 3
  31. Commercial name                          : Dolby Digital
  32. Codec ID                                 : A_AC3
  33. Duration                                 : 1 h 56 min
  34. Bit rate mode                            : Constant
  35. Bit rate                                 : 384 kb/s
  36. Channel(s)                               : 6 channels
  37. Channel layout                           : L R C LFE Ls Rs
  38. Sampling rate                            : 48.0 kHz
  39. Frame rate                               : 31.250 FPS (1536 SPF)
  40. Bit depth                                : 16 bits
  41. Compression mode                         : Lossy
  42. Stream size                              : 320 MiB (4%)
  43. Language                                 : English
  44. Service kind                             : Complete Main
  45. Default                                  : Yes
  46. Forced                                   : No
  47. Audio #2
  48. ID                                       : 4
  49. Format                                   : AAC LC
  50. Format/Info                              : Advanced Audio Codec Low Complexity
  51. Codec ID                                 : A_AAC-2
  52. Duration                                 : 1 h 56 min
  53. Bit rate                                 : 66.2 kb/s
  54. Channel(s)                               : 2 channels
  55. Channel layout                           : L R
  56. Sampling rate                            : 48.0 kHz
  57. Frame rate                               : 46.875 FPS (1024 SPF)
  58. Compression mode                         : Lossy
  59. Stream size                              : 55.8 MiB (1%)
  60. Title                                    : Audio Commentary with actors Adam Baldwin, Vincent D\'Onofrio and R. Lee Ermey, and critic / screenwriter Jay Cocks
  61. Language                                 : English
  62. Default                                  : No
  63. Forced                                   : No
  64. Text
  65. ID                                       : 3
  66. Format                                   : UTF-8
  67. Codec ID                                 : S_TEXT/UTF8
  68. Codec ID/Info                            : UTF-8 Plain Text
  69. Duration                                 : 1 h 56 min
  70. Bit rate                                 : 60 b/s
  71. Count of elements                        : 1943
  72. Stream size                              : 51.3 KiB (0%)
  73. Title                                    : English CC
  74. Language                                 : English
  75. Default                                  : No
  76. Forced                                   : No
  77. Menu
  78. 00:00:00.000                             : en:Haircut Montage
  79. 00:01:34.094                             : en:Sgt. Hartman Names His Maggots
  80. 00:07:31.743                             : en:Drill
  81. 00:09:58.264                             : ru:"This is My Rifle"
  82. 00:13:18.339                             : en:Obstacle Course
  83. 00:17:35.054                             : en:Joker\'s Got Guts
  84. 00:19:39.678                             : en:Helping Pyle
  85. 00:23:47.134                             : en:The Jelly Donat
  86. 00:28:08.270                             : en:Night Attack
  87. 00:30:14.813                             : en:Motivated Marines
  88. 00:32:24.234                             : en:God and The Corps
  89. 00:33:51.655                             : en:Pyle And His Rifle
  90. 00:38:19.005                             : en:Graduation
  91. 00:40:00.231                             : en:Full Metal Jacket
  92. 00:42:54.906                             : en:Pyle\'s Major Malfunction
  93. 00:45:27.308                             : en:Vietnam
  94. 00:47:49.366                             : en:The Stories We Write
  95. 00:51:59.616                             : en:Base Under Attack
  96. 00:56:33.724                             : en:No Ann-Margret?
  97. 00:58:34.720                             : en:Trigger Happy
  98. 01:01:30.687                             : en:What The Dead Know
  99. 01:03:40.942                             : en:The Word Of God
  100. 01:05:51.114                             : en:Reunion With Cowboy
  101. 01:09:00.011                             : en:The Guest Of Honor
  102. 01:10:24.762                             : en:Approaching Hue City
  103. 01:12:19.544                             : en:First Strike
  104. 01:15:35.531                             : en:Vietnam: The Movie
  105. 01:17:47.955                             : en:Words Over The Dead
  106. 01:19:46.615                             : en:Interview Subjects
  107. 01:22:57.222                             : en:Negotiations
  108. 01:25:30.792                             : en:New Squad Leader
  109. 01:28:24.633                             : en:The Sniper
  110. 01:30:57.238                             : en:Two Men Down
  111. 01:35:40.777                             : en:Animal Mother\'s Charge
  112. 01:38:44.502                             : en:Cowboy\'s End
  113. 01:41:43.347                             : en:Getting The Sniper
  114. 01:45:10.304                             : en:"Shoot Me"
  115. 01:51:05.409                             : en:Alive And Not Afraid
  116. 01:52:53.266                             : en:End Credits
复制代码






                                       
                                       

                                       
                                       
                                       




回复

使用道具 举报

懒得打字嘛,点击右侧快捷回复 【右侧内容,后台自定义】
您需要登录后才可以回帖 登录 | 立即加入

本版积分规则

Archiver|小黑屋| 蓝光电影网 |网站地图

Copyright © 2021 Comsenz Inc. Powered by 蓝光电影网

蓝光电影网

本站内容由用户自主分享和转载自互联网,转载目的在于传递更多信息,并不代表本网赞同其观点和对其真实性负责。

如有侵权、违反国家法律政策行为,请联系我们,我们会第一时间及时清除和处理!

举报反馈邮箱:[email protected]

快速回复 返回顶部 返回列表