找回密码

蓝光电影网

查看: 7|回复: 0

[剧情] 强尼的战争/约翰的战争 Johnny.Was.2006.1080p.AMZN.WEBRip.DDP5.1.x264-alfaHD 6.31GB

[复制链接]
蓝光币
382
发表于 2021-8-20 00:36:51 | 显示全部楼层 |阅读模式


◎译  名 强尼的战争 / 约翰的战争
◎片  名 Johnny Was
◎年  代 2006
◎产  地 英国
◎类  别 剧情 / 行动 / 惊悚 / 犯罪
◎语  言 英语
◎上映日期 2006-02-22
◎IMDb评分  5.5/10 from 1620 users
◎IMDb链接  https://www.imdb.com/title/tt0426501
◎豆瓣评分 0/10 from 0 users
◎豆瓣链接 https://movie.douban.com/subject/1873822/
◎片  长 USA: 93 分钟
◎导  演 Mark Hammond
◎编  剧 Brendan Foley
◎主  演 Vinnie Jones
       Patrick Bergin

◎标  签 英国 | johnnywas | HBO | 暴力 | drama | SonychenReviews | 这张电影这里有 | 狂欢
◎简  介

  
  强尼摆脱了在爱尔兰罪行的曩昔到伦敦隐名埋姓生活下来。不意他畴前的黑帮伙伴弗林从布里克斯顿(伦敦南部一地域)牢狱逃出,而且计划在一些地方放置炸弹以侵扰爱尔兰战争进程。由于一向没法逃离布里克斯顿地域,他们只好躲在强尼的居处存身。不外在强尼居住的街区却是龙蛇混杂。他的楼上是一家不法音乐电台,而楼下是一位叫做朱利叶斯的西印度人贩。罪行龌龊的情况像一个庞大的黑洞吸附着强尼身上原本的罪行细胞。当长于寒暄的弗林与那些黑帮成员渐渐混熟时,强尼却在想尽法子脱身,不竭的和自己的黑暗曩昔离别。但是,不幸的是他毛病的爱上了人贩朱利叶斯的女友瑞塔,从而一场爱恨交织的血腥大混战起头了,其中夹杂着种族文化冲突,帮派冤仇,人性的极端罪行……
  1. Video
  2. ID                                       : 1
  3. Format                                   : AVC
  4. Format/Info                              : Advanced Video Codec
  5. Format profile                           : [email protected]
  6. Format settings                          : CABAC / 4 Ref Frames
  7. Format settings, CABAC                   : Yes
  8. Format settings, Reference frames        : 4 frames
  9. Codec ID                                 : V_MPEG4/ISO/AVC
  10. Duration                                 : 1 h 32 min
  11. Bit rate mode                            : Constant
  12. Bit rate                                 : 9 129 kb/s
  13. Nominal bit rate                         : 10 000 kb/s
  14. Width                                    : 1 920 pixels
  15. Height                                   : 1 080 pixels
  16. Display aspect ratio                     : 16:9
  17. Frame rate mode                          : Constant
  18. Frame rate                               : 23.976 (24000/1001/189150) FPS
  19. Color space                              : YUV
  20. Chroma subsampling                       : 4:2:0
  21. Bit depth                                : 8 bits
  22. Scan type                                : Progressive
  23. Bits/(Pixel*Frame)                       : 0.184
  24. Stream size                              : 5.89 GiB (93%)
  25. Default                                  : Yes
  26. Forced                                   : No
  27. Color range                              : Limited
  28. Color primaries                          : BT.709
  29. Transfer characteristics                 : BT.709
  30. Matrix coefficients                      : BT.709
  31. Audio
  32. ID                                       : 2
  33. Format                                   : E-AC-3
  34. Format/Info                              : Enhanced AC-3
  35. Commercial name                          : Dolby Digital Plus
  36. Codec ID                                 : A_EAC3
  37. Duration                                 : 1 h 32 min
  38. Bit rate mode                            : Constant
  39. Bit rate                                 : 640 kb/s
  40. Channel(s)                               : 6 channels
  41. Channel layout                           : L R C LFE Ls Rs
  42. Sampling rate                            : 48.0 kHz
  43. Frame rate                               : 31.250 FPS (1536 SPF)
  44. Compression mode                         : Lossy
  45. Stream size                              : 423 MiB (7%)
  46. Language                                 : English
  47. Service kind                             : Complete Main
  48. Default                                  : Yes
  49. Forced                                   : No
  50. Text #1
  51. ID                                       : 3
  52. Format                                   : UTF-8
  53. Codec ID                                 : S_TEXT/UTF8
  54. Codec ID/Info                            : UTF-8 Plain Text
  55. Duration                                 : 1 h 29 min
  56. Bit rate                                 : 71 b/s
  57. Count of elements                        : 1367
  58. Stream size                              : 46.7 KiB (0%)
  59. Language                                 : English
  60. Default                                  : No
  61. Forced                                   : No
  62. Text #2
  63. ID                                       : 4
  64. Format                                   : UTF-8
  65. Codec ID                                 : S_TEXT/UTF8
  66. Codec ID/Info                            : UTF-8 Plain Text
  67. Duration                                 : 1 h 31 min
  68. Bit rate                                 : 73 b/s
  69. Count of elements                        : 1446
  70. Stream size                              : 49.0 KiB (0%)
  71. Title                                    : SDH
  72. Language                                 : English
  73. Default                                  : No
  74. Forced                                   : No
复制代码






                                       
                                       

                                       
                                       
                                       




回复

使用道具 举报

懒得打字嘛,点击右侧快捷回复 【右侧内容,后台自定义】
您需要登录后才可以回帖 登录 | 立即加入

本版积分规则

Archiver|小黑屋| 蓝光电影网 |网站地图

Copyright © 2021 Comsenz Inc. Powered by 蓝光电影网

蓝光电影网

本站内容由用户自主分享和转载自互联网,转载目的在于传递更多信息,并不代表本网赞同其观点和对其真实性负责。

如有侵权、违反国家法律政策行为,请联系我们,我们会第一时间及时清除和处理!

举报反馈邮箱:[email protected]

快速回复 返回顶部 返回列表