找回密码

蓝光电影网

查看: 11|回复: 0

[剧情] 狂爱走一回/忘情毕加索 Surviving.Picasso.1996.1080p.AMZN.WEBRip.DDP2.0.x264-alfaHD 10.64GB

[复制链接]
蓝光币
382
发表于 2021-8-20 00:36:58 | 显示全部楼层 |阅读模式


◎译  名 狂爱走一回 / 忘情毕加索 / 拯救毕加索
◎片  名 Surviving Picasso
◎年  代 1996
◎产  地 美国
◎类  别 剧情 / 恋爱 / 列传
◎语  言 英语
◎上映日期 1996-09-20
◎IMDb评分  6.4/10 from 6758 users
◎IMDb链接  https://www.imdb.com/title/tt0117791
◎豆瓣评分 7.1/10 from 421 users
◎豆瓣链接 https://movie.douban.com/subject/1297330/
◎片  长 125 分钟
◎导  演 James Ivory
◎编  剧 Ruth Prawer Jhabvala
◎主  演 Anthony Hopkins
       Natascha McElhone
       Julianne Moore
       Joss Ackland
       Dennis Boutsikaris

◎标  签 列传 | 毕加索 | 美国 | 艺术 | AnthonyHopkins | 美国电影 | 艺术祖传 | 恋爱
◎简  介

  
  本片改编自Arianna Huffington所著的毕卡索传:Picasso; Creatorand Destroyer。
  毕卡索使人赞叹的精神、创作才华与扑朔迷离的情爱关系,是这部片的精华。毕卡索在他已62岁时,与小他快要40岁的女画家法兰西丝相遇。此片彷佛是一块花团锦簇的画布,描画出他们两人之间实在的恋爱故事,法兰西丝掉臂家人的否决和毕卡索同居,两人继而展开一段长达十年且铭肌镂骨的忘年之爱。在这十年中,虽然毕卡索年事已高,但犹存的热情与魅力,却没法阻止他和其他的女人在一路,纵使法兰西丝曾是以分开过毕卡索,至末两人始终还是没法分隔。安东尼霍普金斯栩栩诠释出这位印象派绘画大师使人赞叹的精神、创作才华、与扑朔迷离的情爱关系。
  1. Video
  2. ID                                       : 1
  3. Format                                   : AVC
  4. Format/Info                              : Advanced Video Codec
  5. Format profile                           : [email protected]
  6. Format settings                          : CABAC / 4 Ref Frames
  7. Format settings, CABAC                   : Yes
  8. Format settings, Reference frames        : 4 frames
  9. Codec ID                                 : V_MPEG4/ISO/AVC
  10. Duration                                 : 2 h 5 min
  11. Bit rate mode                            : Variable
  12. Bit rate                                 : 11.9 Mb/s
  13. Maximum bit rate                         : 15.0 Mb/s
  14. Width                                    : 1 920 pixels
  15. Height                                   : 1 080 pixels
  16. Display aspect ratio                     : 16:9
  17. Frame rate mode                          : Constant
  18. Frame rate                               : 23.976 (24000/1001/189150) FPS
  19. Color space                              : YUV
  20. Chroma subsampling                       : 4:2:0
  21. Bit depth                                : 8 bits
  22. Scan type                                : Progressive
  23. Bits/(Pixel*Frame)                       : 0.240
  24. Stream size                              : 10.4 GiB (98%)
  25. Writing library                          : x264 core 148 r2623 d5b2374
  26. Encoding settings                        : cabac=1 / ref=4 / deblock=1:-1:-1 / analyse=0x3:0x133 / me=umh / subme=9 / psy=1 / psy_rd=1.00:0.15 / mixed_ref=1 / me_range=24 / chroma_me=1 / trellis=2 / 8x8dct=1 / cqm=0 / deadzone=21,11 / fast_pskip=1 / chroma_qp_offset=-3 / threads=34 / lookahead_threads=5 / sliced_threads=0 / nr=150 / decimate=1 / interlaced=0 / bluray_compat=0 / constrained_intra=0 / bframes=8 / b_pyramid=2 / b_adapt=2 / b_bias=0 / direct=3 / weightb=1 / open_gop=0 / weightp=2 / keyint=120 / keyint_min=61 / scenecut=0 / intra_refresh=0 / rc_lookahead=120 / rc=crf / mbtree=1 / crf=18.0 / qcomp=0.60 / qpmin=0 / qpmax=69 / qpstep=4 / vbv_maxrate=15000 / vbv_bufsize=31250 / crf_max=0.0 / nal_hrd=vbr / filler=0 / ip_ratio=1.40 / aq=3:1.00
  27. Default                                  : Yes
  28. Forced                                   : No
  29. Color range                              : Limited
  30. Color primaries                          : BT.709
  31. Transfer characteristics                 : BT.709
  32. Matrix coefficients                      : BT.709
  33. Audio
  34. ID                                       : 2
  35. Format                                   : E-AC-3
  36. Format/Info                              : Enhanced AC-3
  37. Commercial name                          : Dolby Digital Plus
  38. Codec ID                                 : A_EAC3
  39. Duration                                 : 2 h 5 min
  40. Bit rate mode                            : Constant
  41. Bit rate                                 : 224 kb/s
  42. Channel(s)                               : 2 channels
  43. Channel layout                           : L R
  44. Sampling rate                            : 48.0 kHz
  45. Frame rate                               : 31.250 FPS (1536 SPF)
  46. Compression mode                         : Lossy
  47. Stream size                              : 201 MiB (2%)
  48. Language                                 : English
  49. Service kind                             : Complete Main
  50. Default                                  : Yes
  51. Forced                                   : No
  52. Text #1
  53. ID                                       : 3
  54. Format                                   : UTF-8
  55. Codec ID                                 : S_TEXT/UTF8
  56. Codec ID/Info                            : UTF-8 Plain Text
  57. Duration                                 : 2 h 1 min
  58. Bit rate                                 : 68 b/s
  59. Count of elements                        : 2187
  60. Stream size                              : 61.5 KiB (0%)
  61. Language                                 : English
  62. Default                                  : No
  63. Forced                                   : No
  64. Text #2
  65. ID                                       : 4
  66. Format                                   : UTF-8
  67. Codec ID                                 : S_TEXT/UTF8
  68. Codec ID/Info                            : UTF-8 Plain Text
  69. Duration                                 : 2 h 1 min
  70. Bit rate                                 : 70 b/s
  71. Count of elements                        : 2260
  72. Stream size                              : 62.6 KiB (0%)
  73. Title                                    : SDH
  74. Language                                 : English
  75. Default                                  : No
  76. Forced                                   : No
复制代码






                                       
                                       

                                       
                                       
                                       




回复

使用道具 举报

懒得打字嘛,点击右侧快捷回复 【右侧内容,后台自定义】
您需要登录后才可以回帖 登录 | 立即加入

本版积分规则

Archiver|小黑屋| 蓝光电影网 |网站地图

Copyright © 2021 Comsenz Inc. Powered by 蓝光电影网

蓝光电影网

本站内容由用户自主分享和转载自互联网,转载目的在于传递更多信息,并不代表本网赞同其观点和对其真实性负责。

如有侵权、违反国家法律政策行为,请联系我们,我们会第一时间及时清除和处理!

举报反馈邮箱:[email protected]

快速回复 返回顶部 返回列表